Rhona Mitra | (2019) Trailer Toy Story 4 | Wolfie Hughes

Скачать через торрент [VIDEO] Старик Хоттабыч бесплатно русская версия torrent активатор

Статистика раздачи
Размер:  383 MB   |    Зарегистрирован:  1 год 5 месяцев   |    .torrent скачан:  24 раза   |   
Раздают:  1  
   
загрузка...
 
Автор Сообщение

Galfimbul

avatar Galfimbul


<span class="post-font-serif1">Старик Хоттабыч</span>

<span class="post-font-serif1">Год выпуска: 1956
Страна: СССР
Жанр: фэнтези, семейный, сказка
Продолжительность: 01:24:20
Перевод: не требуется
Cубтитры: нет</span>
<span class="post-font-serif1">Режиссер: Геннадий Казанский</span>
<span class="post-font-serif1">В ролях: Николай Волков, Алёша Литвинов, Гена Худяков, Лёва Ковальчук, Ольга Черкасова, Майя Блинова, Ефим Копелян, Александр Лариков, Вера Романова, Евгений Весник, А. Галин, Борис Коковкин, Анатолий Королькевич, Всеволод Кузнецов, М. Степанов, Олег Вишнев и другие .</span>
<span class="post-font-serif1">Описание: 12-летний московский школьник Волька, купаясь в Москва-реке, находит какой-то древний запечатанный сосуд. Мальчишеское любопытство настолько сильно, что при первом же удобном случае Волька вскрывает его, и из сосуда появляется сказочный джинн — Гассан Абдурахман ибн Хоттаб.

За то, что Волька спас его от двухтысячелетнего заточения, джинн, прозванный мальчиком Хоттабычем, становится его верным слугой. Он пытается задарить мальчика, пригнав к его дому целый караван верблюдов с несметными сокровищами. Вместе они совершат увлекательный полет в Индию на волшебном ковре-самолете…</span>
<span class="post-font-serif1">Релиз группы </span>
<span class="post-font-serif1">Качество: HDRip / рип с BDRip 720p
Формат: MP4
Видео кодек: XviD
Аудио кодек: AAC
Видео: 424x320 AR:4/3 499 kbps 23.976 fps
Аудио: 2ch 48 kHz 128 kbps</span>
GeneralComplete name : D:\Torrents\Старик Хоттабыч.1956.HDRip.XviD.480x.rip by Frost O.S.mp4Format : MPEG-4Format profile : Base MediaCodec ID : isom (isom)File size : 383 MiBDuration : 1 h 24 minOverall bit rate mode : VariableOverall bit rate : 635 kb/sMovie name : Старик Хоттабыч 1956 HDRip XviD 480x rip by Frost O SGenre : Children'sContentType : Short FilmEncoded date : UTC 2017-02-08 16:33:42Tagged date : UTC 2017-02-08 16:34:32Writing application : MkvToMp4 version: 0.224 (x64)Cover : YesComment : rip by Frost O.S

VideoID : 1Format : MPEG-4 VisualFormat profile : Advanced [email protected] settings, BVOP : YesFormat settings, QPel : NoFormat settings, GMC : No warppointsFormat settings, Matrix : CustomCodec ID : 20Duration : 1 h 24 minBit rate mode : VariableBit rate : 499 kb/sMaximum bit rate : 1 686 kb/sWidth : 424 pixelsHeight : 320 pixelsDisplay aspect ratio : 4:3Frame rate mode : ConstantFrame rate : 23.976 (24000/1001) FPSOriginal frame rate : 23.976 (23976/1000) FPSColor space : YUVChroma subsampling : 4:2:0Bit depth : 8 bitsScan type : ProgressiveCompression mode : LossyBits/(Pixel*Frame) : 0.153Stream size : 301 MiB (79%)Title : avi_GPAC0.5.2_DEV_rev248_g39d5978_masterWriting library : XviD 1.2.1 (UTC 2008-12-04)Language : EnglishTagged date : UTC 2017-02-08 16:34:03

AudioID : 2Format : AACFormat/Info : Advanced Audio CodecFormat profile : LCCodec ID : 40Duration : 1 h 24 minBit rate mode : VariableBit rate : 128 kb/sMaximum bit rate : 135 kb/sChannel(s) : 2 channelsChannel positions : Front: L RSampling rate : 48.0 kHzFrame rate : 46.875 FPS (1024 spf)Compression mode : LossyStream size : 77.2 MiB (20%)Language : RussianDefault : YesAlternate group : 1Encoded date : UTC 2017-02-08 16:33:54Tagged date : UTC 2017-02-08 16:34:03
<div class="clear" style="height: 8px;"></div>

Трекер:  [ 08-Фев-2017 19:00 ]

  

Скачать .torrent

Размер .torrent файла 15 KB


Размер: 383 MB
Хэш (hash) релиза: 1cef1291c68920a102c8d047f2f8524ac92cf768

Торренты, похожие на [VIDEO] Старик Хоттабыч скачать торрент

Форум Название Автор Размер S L Добавлен
Видео (Фильмы/Клипы) ·· [VIDEO] Старик Хоттабыч (Геннадий Казанский) [1956, фэнтези, семейный, сказка, BDRip] [MP4, 960x] Galfimbul 11298936051.05 GB 0 0 1486635592

13:19

9-Фев-17

Еще никто не оставлял запись к записи скачать торрент [VIDEO] Старик Хоттабыч . Будь первым!

!Обратная связь