Benedict Wong | now you see me 2 | Télécharger

Скачать через торрент [VIDEO] Человек-амфибия бесплатно русская версия torrent активатор

Статистика раздачи
Размер:  426 MB   |    Зарегистрирован:  1 год 5 месяцев   |    .torrent скачан:  29 раз   |   
Раздают:  1  
   
загрузка...
 
Автор Сообщение

Galfimbul

avatar Galfimbul


<span class="post-font-serif1">Человек-амфибия</span>

<span class="post-font-serif1">Год выпуска: 1961
Страна: СССР
Жанр: фантастика, драма, мелодрама
Продолжительность: 01:36:21
Перевод: не требуется
Cубтитры: нет</span>
<span class="post-font-serif1">Режиссеры: Владимир Чеботарев, Геннадий Казанский</span>
<span class="post-font-serif1">В ролях: Владимир Коренев, Анастасия Вертинская, Михаил Козаков, Николай Симонов, Владлен Давыдов, Анатолий Смиранин, А. Антонян, Анатолий Иванов, Валерий Кудряшов, Николай Кузьмин и другие .</span>
<span class="post-font-serif1">Описание: Однажды талантливый ученый доктор Сальватор спас жизнь маленькому мальчику, пересадив ему жабры акулы. С этого дня Ихтиандр, так назвал своего приемного сына ученый, мог плавать под водой, как рыба, нырять на любую глубину, но ему было тяжело подолгу находиться на суше…

Годы спустя по тихому морскому городу поползли слухи о странном существе, наводящем ужас на всех рыбаков, o «морском дьяволе». В это же самое время в городе появляется молодой человек, который мало общается с людьми и прекрасно плавает. Он знакомится с дочерью бедного ныряльщика за жемчугом, красавицей Гутиэре и без памяти в нее влюбляется…</span>
<span class="post-font-serif1">Релиз группы </span>
<span class="post-font-serif1">Качество: HDRip / рип с BDRip 720p
Формат: MP4
Видео кодек: XviD
Аудио кодек: AAC
Видео: 440x320 AR:1.375 483 kbps 23.976 fps
Аудио: 2ch 48 kHz 128 kbps</span>
GeneralComplete name : D:\Torrents\Человек-амфибия.1961.HDRip.XviD.480x.rip by Frost O.S.mp4Format : MPEG-4Format profile : Base MediaCodec ID : isom (isom)File size : 426 MiBDuration : 1 h 36 minOverall bit rate mode : VariableOverall bit rate : 619 kb/sMovie name : Человек-амфибия 1961 HDRip XviD 480x rip by Frost O SGenre : FantasyContentType : Short FilmEncoded date : UTC 2017-02-08 15:17:23Tagged date : UTC 2017-02-08 15:18:22Writing application : MkvToMp4 version: 0.224 (x64)Cover : YesComment : rip by Frost O.S

VideoID : 1Format : MPEG-4 VisualFormat profile : Advanced [email protected] settings, BVOP : YesFormat settings, QPel : NoFormat settings, GMC : No warppointsFormat settings, Matrix : CustomCodec ID : 20Duration : 1 h 36 minBit rate mode : VariableBit rate : 483 kb/sMaximum bit rate : 2 551 kb/sWidth : 440 pixelsHeight : 320 pixelsDisplay aspect ratio : 1.375Frame rate mode : ConstantFrame rate : 23.976 (24000/1001) FPSOriginal frame rate : 23.976 (23976/1000) FPSColor space : YUVChroma subsampling : 4:2:0Bit depth : 8 bitsScan type : ProgressiveCompression mode : LossyBits/(Pixel*Frame) : 0.143Stream size : 333 MiB (78%)Title : avi_GPAC0.5.2_DEV_rev248_g39d5978_masterWriting library : XviD 1.2.1 (UTC 2008-12-04)Language : EnglishTagged date : UTC 2017-02-08 15:17:33

AudioID : 2Format : AACFormat/Info : Advanced Audio CodecFormat profile : LCCodec ID : 40Duration : 1 h 36 minBit rate mode : VariableBit rate : 128 kb/sMaximum bit rate : 135 kb/sChannel(s) : 2 channelsChannel positions : Front: L RSampling rate : 48.0 kHzFrame rate : 46.875 FPS (1024 spf)Compression mode : LossyStream size : 88.2 MiB (21%)Language : RussianDefault : YesAlternate group : 1Encoded date : UTC 2017-02-08 15:17:30Tagged date : UTC 2017-02-08 15:17:33
<div class="clear" style="height: 8px;"></div>

Трекер:  [ 08-Фев-2017 17:30 ]

  

Скачать .torrent

Размер .torrent файла 17 KB


Размер: 426 MB
Хэш (hash) релиза: 41567fa61419dbf58b032b3cae39051ab35ed426

Торренты, похожие на [VIDEO] Человек-амфибия скачать торрент

Форум Название Автор Размер S L Добавлен
Видео (Фильмы/Клипы) ·· [VIDEO] Человек-амфибия (Владимир Чеботарев, Геннадий Казанский) [1961, фантастика, драма, мелодрама, BDRip] [MP4, 960x] Galfimbul 12930306541.2 GB 0 0 1486564677

17:37

8-Фев-17

Еще никто не оставлял запись к записи скачать торрент [VIDEO] Человек-амфибия . Будь первым!

!Обратная связь