Angry Birds Film - HD / Angry Birds [2016] HD | Horrorcore | The 100 S03E10 VOSTFR HDTV

Скачать через торрент [VIDEO] Человек-амфибия бесплатно русская версия torrent активатор

Статистика раздачи
Размер:  1.2 GB   |    Зарегистрирован:  1 год 5 месяцев   |    .torrent скачан:  30 раз   |   
Раздают:  1  
   
загрузка...
 
Автор Сообщение

Galfimbul

avatar Galfimbul


<span class="post-font-serif1">Человек-амфибия</span>

<span class="post-font-serif1">Год выпуска: 1961
Страна: СССР
Жанр: фантастика, драма, мелодрама
Продолжительность: 01:36:21
Перевод: не требуется
Cубтитры: нет</span>
<span class="post-font-serif1">Режиссеры: Владимир Чеботарев, Геннадий Казанский</span>
<span class="post-font-serif1">В ролях: Владимир Коренев, Анастасия Вертинская, Михаил Козаков, Николай Симонов, Владлен Давыдов, Анатолий Смиранин, А. Антонян, Анатолий Иванов, Валерий Кудряшов, Николай Кузьмин и другие .</span>
<span class="post-font-serif1">Описание: Однажды талантливый ученый доктор Сальватор спас жизнь маленькому мальчику, пересадив ему жабры акулы. С этого дня Ихтиандр, так назвал своего приемного сына ученый, мог плавать под водой, как рыба, нырять на любую глубину, но ему было тяжело подолгу находиться на суше…

Годы спустя по тихому морскому городу поползли слухи о странном существе, наводящем ужас на всех рыбаков, o «морском дьяволе». В это же самое время в городе появляется молодой человек, который мало общается с людьми и прекрасно плавает. Он знакомится с дочерью бедного ныряльщика за жемчугом, красавицей Гутиэре и без памяти в нее влюбляется…</span>
<span class="post-font-serif1">Релиз группы </span>
<span class="post-font-serif1">Качество: BDRip / рип с Blu-ray 1080p
Формат: MP4
Видео кодек: H.264
Аудио кодек: AAC
Видео: 734x536 AR:4/3 1653 kbps 23.976 fps
Аудио: 2ch 48 kHz 128 kbps</span>
avs [info]: 734x536p 1:1 @ 2997/125 fps (cfr)
x264 [info]: using SAR=1/1
x264 [info]: using cpu capabilities: MMX2 SSE2Fast SSSE3 SSE4.2 AVX FMA3 AVX2 LZCNT BMI2
x264 [info]: profile High, level 4.1

x264 [info]: frame I:841 Avg QP:20.05 size: 45267
x264 [info]: frame P:29356 Avg QP:22.05 size: 16559
x264 [info]: frame B:108411 Avg QP:23.89 size: 6185
x264 [info]: consecutive B-frames: 1.1% 0.8% 5.9% 30.2% 17.9% 40.1% 3.0% 1.0%
x264 [info]: mb I I16..4: 5.3% 73.7% 20.9%
x264 [info]: mb P I16..4: 0.4% 9.2% 1.7% P16..4: 34.5% 35.7% 10.8% 0.0% 0.0% skip: 7.7%
x264 [info]: mb B I16..4: 0.0% 1.4% 0.2% B16..8: 33.5% 16.7% 3.2% direct: 4.9% skip:40.0% L0:42.9% L1:45.4% BI:11.7%
x264 [info]: 8x8 transform intra:81.9% inter:64.9%
x264 [info]: coded y,uvDC,uvAC intra: 91.8% 71.4% 34.3% inter: 24.0% 17.8% 0.7%
x264 [info]: i16 v,h,dc,p: 23% 26% 3% 48%
x264 [info]: i8 v,h,dc,ddl,ddr,vr,hd,vl,hu: 9% 7% 5% 10% 15% 13% 15% 11% 14%
x264 [info]: i4 v,h,dc,ddl,ddr,vr,hd,vl,hu: 9% 7% 3% 9% 16% 15% 16% 11% 15%
x264 [info]: i8c dc,h,v,p: 32% 31% 20% 17%
x264 [info]: Weighted P-Frames: Y:35.8% UV:25.1%
x264 [info]: ref P L0: 43.0% 12.6% 15.7% 7.1% 5.7% 4.5% 4.0% 2.3% 2.2% 2.2% 0.8% 0.0%
x264 [info]: ref B L0: 79.7% 8.2% 4.2% 2.3% 1.7% 1.5% 1.2% 0.7% 0.4%
x264 [info]: ref B L1: 96.6% 3.4%
x264 [info]: kb/s:1653.30

encoded 138608 frames, 13.39 fps, 1653.30 kb/s
GeneralComplete name : D:\Torrents\Человек-амфибия.1961.BDRip.x264.960x.rip by Frost O.S.mp4Format : MPEG-4Format profile : Base MediaCodec ID : isom (isom/avc1)File size : 1.20 GiBDuration : 1 h 36 minOverall bit rate mode : VariableOverall bit rate : 1 789 kb/sMovie name : Человек-амфибия 1961 BDRip x264 960x rip by Frost O SGenre : FantasyContentType : Short FilmEncoded date : UTC 2017-02-08 13:47:44Tagged date : UTC 2017-02-08 13:51:44Writing application : MkvToMp4 version: 0.224 (x64)Cover : YesComment : rip by Frost O.S

VideoID : 1Format : AVCFormat/Info : Advanced Video CodecFormat profile : [email protected] settings, CABAC : YesFormat settings, ReFrames : 10 framesCodec ID : avc1Codec ID/Info : Advanced Video CodingDuration : 1 h 36 minBit rate : 1 653 kb/sMaximum bit rate : 7 607 kb/sWidth : 734 pixelsHeight : 536 pixelsDisplay aspect ratio : 4:3Frame rate mode : ConstantFrame rate : 23.976 (24000/1001) FPSOriginal frame rate : 23.976 (23976/1000) FPSColor space : YUVChroma subsampling : 4:2:0Bit depth : 8 bitsScan type : ProgressiveBits/(Pixel*Frame) : 0.175Stream size : 1.11 GiB (92%)Writing library : x264 core 148 r2705 3f5ed56Encoding settings : cabac=1 / ref=10 / deblock=1:-1:-1 / analyse=0x3:0x113 / me=umh / subme=11 / psy=1 / psy_rd=1.00:0.00 / mixed_ref=1 / me_range=32 / chroma_me=1 / trellis=2 / 8x8dct=1 / cqm=0 / deadzone=21,11 / fast_pskip=1 / chroma_qp_offset=-2 / threads=6 / lookahead_threads=1 / sliced_threads=0 / nr=0 / decimate=1 / interlaced=0 / bluray_compat=0 / constrained_intra=0 / bframes=7 / b_pyramid=2 / b_adapt=2 / b_bias=0 / direct=1 / weightb=1 / open_gop=0 / weightp=2 / keyint=250 / keyint_min=23 / scenecut=40 / intra_refresh=0 / rc=crf / mbtree=0 / crf=20.0 / qcomp=0.65 / qpmin=0 / qpmax=69 / qpstep=4 / ip_ratio=1.40 / pb_ratio=1.25 / aq=2:0.90Language : EnglishEncoded date : UTC 2017-02-08 13:47:44Tagged date : UTC 2017-02-08 13:50:26Color range : LimitedColor primaries : BT.709Transfer characteristics : BT.709Matrix coefficients : BT.709

AudioID : 2Format : AACFormat/Info : Advanced Audio CodecFormat profile : LCCodec ID : 40Duration : 1 h 36 minBit rate mode : VariableBit rate : 128 kb/sMaximum bit rate : 135 kb/sChannel(s) : 2 channelsChannel positions : Front: L RSampling rate : 48.0 kHzFrame rate : 46.875 FPS (1024 spf)Compression mode : LossyStream size : 88.2 MiB (7%)Language : RussianDefault : YesAlternate group : 1Encoded date : UTC 2017-02-08 13:50:10Tagged date : UTC 2017-02-08 13:50:26
<div class="clear" style="height: 8px;"></div>

Трекер:  [ 08-Фев-2017 16:30 ]

  

Скачать .torrent

Размер .torrent файла 12 KB


Размер: 1.2 GB
Хэш (hash) релиза: 92bf77e90083334f5de1510510476639421c9e62

Торренты, похожие на [VIDEO] Человек-амфибия скачать торрент

Форум Название Автор Размер S L Добавлен
Видео (Фильмы/Клипы) ·· [VIDEO] Человек-амфибия (Владимир Чеботарев, Геннадий Казанский) [1961, фантастика, драма, мелодрама, HDRip] [MP4, 480x] Galfimbul 447121213426 MB 0 0 1486568102

18:35

8-Фев-17

Еще никто не оставлял запись к записи скачать торрент [VIDEO] Человек-амфибия . Будь первым!

!Обратная связь