El Fin de los Dias BluRay 1080p
android

Скачать через торрент музыку Карнавал Роботов Robot Carnival бесплатно без регистрации torrent

Статистика раздачи
Размер:  364 MB   |    Зарегистрирован:  1 год 2 месяца   |    .torrent скачан:  34 раза   |   
Раздают:  1  
   
загрузка...
 
Автор Сообщение

Galfimbul

avatar Galfimbul


Карнавал Роботов / Robot Carnival

Название альбома: Robot Carnival Original Soundtrack
Композитор: Hisaishi Joe, Fujita Isaku
Год выпуска: 1987
Страна: Япония
Аудио кодек: FLAC (*.flac)
Тип рипа: tracks+.cue
Битрейт аудио: lossless
Продолжительность: 69:12
Наличие сканов в содержимом раздачи: да

Треклист:
1.Coming Soon (Opening) (Hisaishi Joe)
2.Niwa-Tori Otoko To Akai Kubi 1 (Nightmare 1) (Hisaishi Joe)
3.Niwa-Tori Otoko To Akai Kubi 4 (Nightmare 4) (Hisaishi Joe)
4.Raihosha - 'The Visitor' (Deprive 1) (Hisaishi Joe)
5.Deprive 3 (Hisaishi Joe)
6.Presence Iii (Hisaishi Joe)
7.Presence V (Hisaishi Joe)
8.Wa - Harmony And Peace (Two Robots 2) (Hisaishi Joe)
9.Sai - Festival (Two Robots 1) (Hisaishi Joe)
10.Nani - 'What' (Clouds 2) (Fujita Isaku)
11.Struggle (Clouds 3) (Fujita Isaku)
12.Ora (Clouds 5) (Fujita Isaku)
13.Heart And Hand (Starlight Angel 1) (Hisaishi Joe)
14.Merry-Go-Round (Starlight Angel 2) (Hisaishi Joe)
15.Unit 1 (Franken's Gears 1) (Hisaishi Joe)
16.Unit 2 (Franken's Gears 2) (Hisaishi Joe)
17.Niwa-Tori Otoko To Akai Kubi 2 (Nightmare 2) (Hisaishi Joe)
18.Niwa-Tori Otoko To Akai Kubi 3 (Nightmare 3) (Hisaishi Joe)
19.Battle (Deprive 2) (Hisaishi Joe)
20.Presence I (Hisaishi Joe)
21.Presence Iv (Hisaishi Joe)
22.Prologue (Clouds) (Fujita Isaku)
23.In The White Cloud (Clouds 1) (Fujita Isaku)
24.Silent (Clouds 4) (Fujita Isaku)
25.Twilight [Bridge] (Clouds 5) (Fujita Isaku)
26.Buruu Na Kimochi - 'I Got The Blues' (Starlight Angel 4) (Hisaishi Joe)
27.See You Again (Ending) (Hisaishi Joe)
Exact Audio Copy V1.0 beta 2 from 29. April 2011

EAC extraction logfile from 17. June 2012, 22:37

久石譲 / オリジナル・ビデオ・アニメーション ロボット・カーニバル ~オリジナル・サウンドトラック~ CDスペシャル

Used drive : PIONEER DVD-RW DVR-218L Adapter: 1 ID: 1

Read mode : SecureUtilize accurate stream : YesDefeat audio cache : YesMake use of C2 pointers : No

Read offset correction : 6Overread into Lead-In and Lead-Out : NoFill up missing offset samples with silence : YesDelete leading and trailing silent blocks : NoNull samples used in CRC calculations : YesUsed interface : Native Win32 interface for Win NT & 2000Gap handling : Appended to previous track

Used output format : User Defined EncoderSelected bitrate : 1024 kBit/sQuality : HighAdd ID3 tag : NoCommand line compressor : C:\Progra~1\FLAC\flac.exeAdditional command line options : -8 -V -T "artist=%artist%" -T "title=%title%" -T "album=%albumtitle%" -T "composer=%composer%" -T "album artist=%albumartist%" -T "date=%year%" -T "tracknumber=%tracknr%" -T "discnumber=%cdnumber%" -T "genre=%genre%" -T "co

TOC of the extracted CD

Track | Start | Length | Start sector | End sector --------------------------------------------------------- 1 | 0:00.37 | 3:54.40 | 37 | 17626 2 | 3:55.02 | 3:33.15 | 17627 | 33616 3 | 7:28.17 | 1:09.18 | 33617 | 38809 4 | 8:37.35 | 1:37.40 | 38810 | 46124 5 | 10:15.00 | 3:42.55 | 46125 | 62829 6 | 13:57.55 | 2:47.67 | 62830 | 75421 7 | 16:45.47 | 1:15.18 | 75422 | 81064 8 | 18:00.65 | 1:59.70 | 81065 | 90059 9 | 20:00.60 | 4:27.52 | 90060 | 110136 10 | 24:28.37 | 0:45.18 | 110137 | 113529 11 | 25:13.55 | 1:59.37 | 113530 | 122491 12 | 27:13.17 | 3:37.58 | 122492 | 138824 13 | 30:51.00 | 4:11.15 | 138825 | 157664 14 | 35:02.15 | 3:08.70 | 157665 | 171834 15 | 38:11.10 | 2:46.02 | 171835 | 184286 16 | 40:57.12 | 4:26.10 | 184287 | 204246 17 | 45:23.22 | 1:54.48 | 204247 | 212844 18 | 47:17.70 | 3:14.15 | 212845 | 227409 19 | 50:32.10 | 4:10.40 | 227410 | 246199 20 | 54:42.50 | 1:12.10 | 246200 | 251609 21 | 55:54.60 | 2:50.20 | 251610 | 264379 22 | 58:45.05 | 0:39.35 | 264380 | 267339 23 | 59:24.40 | 1:19.52 | 267340 | 273316 24 | 60:44.17 | 1:10.63 | 273317 | 278629 25 | 61:55.05 | 0:47.05 | 278630 | 282159 26 | 62:42.10 | 3:11.35 | 282160 | 296519 27 | 65:53.45 | 3:19.47 | 296520 | 311491

Track 1

Filename E:\EAC\01 - COMING SOON -オープニング-.wav

Pre-gap length 0:00:02.37

Peak level 100.0 % Extraction speed 1.2 X Track quality 100.0 % Test CRC 9AAC8594 Copy CRC 9AAC8594 Cannot be verified as accurate (confidence 3) [391E9A05], AccurateRip returned [A178A761] (AR v2) Copy OK

Track 2

Filename E:\EAC\02 - ニワトリ男と赤い首Ⅰ.wav

Pre-gap length 0:00:01.37

Peak level 100.0 % Extraction speed 1.3 X Track quality 100.0 % Test CRC EEFEDF86 Copy CRC EEFEDF86 Cannot be verified as accurate (confidence 3) [5B4C1DD8], AccurateRip returned [284D35FD] (AR v2) Copy OK

Track 3

Filename E:\EAC\03 - ニワトリ男と赤い首Ⅳ.wav

Pre-gap length 0:00:00.37

Peak level 47.5 % Extraction speed 1.0 X Track quality 100.0 % Test CRC A236BA3C Copy CRC A236BA3C Cannot be verified as accurate (confidence 3) [3F11E32A], AccurateRip returned [30FA15CC] (AR v2) Copy OK

Track 4

Filename E:\EAC\04 - 来訪者.wav

Pre-gap length 0:00:02.37

Peak level 63.8 % Extraction speed 1.1 X Track quality 100.0 % Test CRC CEAC7B04 Copy CRC CEAC7B04 Cannot be verified as accurate (confidence 3) [946823DE], AccurateRip returned [83409ADC] (AR v2) Copy OK

Track 5

Filename E:\EAC\05 - DEPRIVE.wav

Pre-gap length 0:00:00.37

Peak level 95.7 % Extraction speed 1.3 X Track quality 99.9 % Test CRC 1A57FF7D Copy CRC 1A57FF7D Cannot be verified as accurate (confidence 3) [87ACFC5C], AccurateRip returned [7B725E3C] (AR v2) Copy OK

Track 6

Filename E:\EAC\06 - プレゼンスⅢ.wav

Pre-gap length 0:00:02.37

Peak level 51.1 % Extraction speed 1.4 X Track quality 100.0 % Test CRC 4BD15C7F Copy CRC 4BD15C7F Cannot be verified as accurate (confidence 3) [BF5E322F], AccurateRip returned [58CA9B98] (AR v2) Copy OK

Track 7

Filename E:\EAC\07 - プレゼンスⅤ.wav

Pre-gap length 0:00:01.37

Peak level 81.5 % Extraction speed 1.2 X Track quality 100.0 % Test CRC A20839AB Copy CRC A20839AB Cannot be verified as accurate (confidence 3) [488E830E], AccurateRip returned [3ABBDAD7] (AR v2) Copy OK

Track 8

Filename E:\EAC\08 - 和 -WA-.wav

Pre-gap length 0:00:02.37

Peak level 68.3 % Extraction speed 1.4 X Track quality 100.0 % Test CRC C9A4853B Copy CRC C9A4853B Cannot be verified as accurate (confidence 3) [E2F87919], AccurateRip returned [B7BD2AB6] (AR v2) Copy OK

Track 9

Filename E:\EAC\09 - 祭 -SAI-.wav

Pre-gap length 0:00:00.37

Peak level 84.5 % Extraction speed 1.7 X Track quality 100.0 % Test CRC 1DF4034D Copy CRC 1DF4034D Cannot be verified as accurate (confidence 3) [7D54F3E4], AccurateRip returned [DAB03662] (AR v2) Copy OK

Track 10

Filename E:\EAC\10 - NANI?.wav

Pre-gap length 0:00:02.37

Peak level 31.2 % Extraction speed 1.1 X Track quality 100.0 % Test CRC 6AC28EA1 Copy CRC 6AC28EA1 Cannot be verified as accurate (confidence 3) [9C7BB405], AccurateRip returned [13E6E6E3] (AR v2) Copy OK

Track 11

Filename E:\EAC\11 - STRUGGLE.wav

Pre-gap length 0:00:01.37

Peak level 78.9 % Extraction speed 1.3 X Track quality 99.9 % Test CRC 578A484A Copy CRC 578A484A Cannot be verified as accurate (confidence 3) [865B84E2], AccurateRip returned [AB8A2C8E] (AR v2) Copy OK

Track 12

Filename E:\EAC\12 - ŌRA.wav

Pre-gap length 0:00:01.37

Peak level 42.4 % Extraction speed 1.6 X Track quality 99.9 % Test CRC 7D0897BF Copy CRC 7D0897BF Cannot be verified as accurate (confidence 3) [DF2FA48D], AccurateRip returned [8FDD8E18] (AR v2) Copy OK

Track 13

Filename E:\EAC\13 - ハート&ハンド.wav

Pre-gap length 0:00:02.37

Peak level 100.0 % Extraction speed 1.9 X Track quality 100.0 % Test CRC 4CDF2FF1 Copy CRC 4CDF2FF1 Cannot be verified as accurate (confidence 3) [4F2D7F15], AccurateRip returned [7EB00688] (AR v2) Copy OK

Track 14

Filename E:\EAC\14 - メリーゴーラウンド.wav

Pre-gap length 0:00:01.37

Peak level 89.7 % Extraction speed 1.9 X Track quality 100.0 % Test CRC 1C64345C Copy CRC 1C64345C Cannot be verified as accurate (confidence 3) [5A774008], AccurateRip returned [9F954BB8] (AR v2) Copy OK

Track 15

Filename E:\EAC\15 - UNIT 1.wav

Pre-gap length 0:00:02.37

Peak level 84.5 % Extraction speed 1.9 X Track quality 100.0 % Test CRC E65F9BFD Copy CRC E65F9BFD Cannot be verified as accurate (confidence 3) [CAC62B02], AccurateRip returned [22378CA1] (AR v2) Copy OK

Track 16

Filename E:\EAC\16 - UNIT 2.wav

Pre-gap length 0:00:01.37

Peak level 88.7 % Extraction speed 2.1 X Track quality 100.0 % Test CRC 04E46803 Copy CRC 04E46803 Cannot be verified as accurate (confidence 3) [3BDDF539], AccurateRip returned [C297D118] (AR v2) Copy OK

Track 17

Filename E:\EAC\17 - ニワトリ男と赤い首Ⅱ.wav

Pre-gap length 0:00:02.37

Peak level 74.9 % Extraction speed 1.9 X Track quality 100.0 % Test CRC 058AA496 Copy CRC 058AA496 Cannot be verified as accurate (confidence 3) [A8E7C831], AccurateRip returned [D08A2AE1] (AR v2) Copy OK

Track 18

Filename E:\EAC\18 - ニワトリ男と赤い首Ⅲ.wav

Pre-gap length 0:00:00.37

Peak level 72.5 % Extraction speed 1.8 X Track quality 99.9 % Test CRC 13BE1D05 Copy CRC 13BE1D05 Cannot be verified as accurate (confidence 3) [D03E7D12], AccurateRip returned [884EFC40] (AR v2) Copy OK

Track 19

Filename E:\EAC\19 - BATTLE.wav

Pre-gap length 0:00:02.37

Peak level 89.7 % Extraction speed 2.3 X Track quality 100.0 % Test CRC 3468C263 Copy CRC 3468C263 Cannot be verified as accurate (confidence 3) [399637C4], AccurateRip returned [F40EEE8B] (AR v2) Copy OK

Track 20

Filename E:\EAC\20 - プレゼンスⅠ.wav

Pre-gap length 0:00:01.37

Peak level 45.1 % Extraction speed 1.7 X Track quality 100.0 % Test CRC E8A0F821 Copy CRC E8A0F821 Cannot be verified as accurate (confidence 3) [B8D2A3FE], AccurateRip returned [2BF7EC9A] (AR v2) Copy OK

Track 21

Filename E:\EAC\21 - プレゼンスⅣ.wav

Pre-gap length 0:00:00.37

Peak level 52.4 % Extraction speed 2.2 X Track quality 100.0 % Test CRC 283F9200 Copy CRC 283F9200 Cannot be verified as accurate (confidence 3) [3A881E08], AccurateRip returned [98B2F46F] (AR v2) Copy OK

Track 22

Filename E:\EAC\22 - -プロローグ-.wav

Pre-gap length 0:00:02.37

Peak level 32.8 % Extraction speed 1.3 X Track quality 100.0 % Test CRC 48352426 Copy CRC 48352426 Cannot be verified as accurate (confidence 3) [A4F5CC85], AccurateRip returned [36A85BBA] (AR v2) Copy OK

Track 23

Filename E:\EAC\23 - IN THE WHITE CLOUD.wav

Pre-gap length 0:00:00.37

Peak level 46.8 % Extraction speed 1.4 X Track quality 99.8 % Test CRC 50C0D0DD Copy CRC 50C0D0DD Cannot be verified as accurate (confidence 3) [7F112A3F], AccurateRip returned [B9C2DA37] (AR v2) Copy OK

Track 24

Filename E:\EAC\24 - SILENT.wav

Pre-gap length 0:00:00.37

Peak level 25.4 % Extraction speed 1.8 X Track quality 100.0 % Test CRC 4CDF925E Copy CRC 4CDF925E Cannot be verified as accurate (confidence 3) [1D5830A1], AccurateRip returned [BAE54AC7] (AR v2) Copy OK

Track 25

Filename E:\EAC\25 - TWILIGHT.wav

Pre-gap length 0:00:00.37

Peak level 29.5 % Extraction speed 1.5 X Track quality 100.0 % Test CRC 482115D0 Copy CRC 482115D0 Cannot be verified as accurate (confidence 3) [B2223797], AccurateRip returned [915FDC14] (AR v2) Copy OK

Track 26

Filename E:\EAC\26 - ブルーな気持.wav

Pre-gap length 0:00:01.37

Peak level 78.6 % Extraction speed 2.4 X Track quality 100.0 % Test CRC F9CF5BF8 Copy CRC F9CF5BF8 Cannot be verified as accurate (confidence 3) [CE864BAC], AccurateRip returned [8CBB6089] (AR v2) Copy OK

Track 27

Filename E:\EAC\27 - SEE YOU AGAIN -エンディング-.wav

Pre-gap length 0:00:02.37

Peak level 59.5 % Extraction speed 2.4 X Track quality 100.0 % Test CRC 3EA5040B Copy CRC 3EA5040B Cannot be verified as accurate (confidence 3) [11BBEA35], AccurateRip returned [60BFB156] (AR v2) Copy OK

No tracks could be verified as accurateYou may have a different pressing from the one(s) in the database

No errors occurred

End of status report

==== Log checksum 5C20EBD5E0115688997EEEABE099E0B3C57A3AFE3E59D2AD8CDEED78606D7A1C ====
AUDIOCHECKER v2.0 beta (build 457) - by Dester - [email protected]~~~~~~~~~~~~~~~~~~~~~~~~~~~~~~~~~~-=== DO NOT EDIT THIS FILE! ===-

Path: ...\Robot Carnival Original Soundtrack (FLAC)

01 -=- 01 - Coming Soon (Opening).flac -=- CDDA (100%)02 -=- 02 - Niwa-Tori Otoko To Akai Kubi 1 (Nightmare 1).flac -=- CDDA (86%)03 -=- 03 - Niwa-Tori Otoko To Akai Kubi 4 (Nightmare 4).flac -=- CDDA (99%)04 -=- 04 - Raihosha - 'The Visitor' (Deprive 1).flac -=- CDDA (100%)05 -=- 05 - Deprive 3.flac -=- CDDA (100%)06 -=- 06 - Presence III.flac -=- CDDA (87%)07 -=- 07 - Presence V.flac -=- ERROR08 -=- 08 - Wa - Harmony And Peace (Two Robots 2).flac -=- ERROR09 -=- 09 - Sai - Festival (Two Robots 1).flac -=- ERROR10 -=- 10 - Nani - 'What' (Clouds 2).flac -=- CDDA (100%)11 -=- 11 - Struggle (Clouds 3).flac -=- CDDA (100%)12 -=- 12 - Ora (Clouds 5).flac -=- CDDA (100%)13 -=- 13 - Heart And Hand (Starlight Angel 1).flac -=- CDDA (100%)14 -=- 14 - Merry-Go-Round (Starlight Angel 2).flac -=- CDDA (100%)15 -=- 15 - Unit 1 (Franken's Gears 1).flac -=- CDDA (100%)16 -=- 16 - Unit 2 (Franken's Gears 2).flac -=- CDDA (94%)17 -=- 17 - Niwa-Tori Otoko To Akai Kubi 2 (Nightmare 2).flac -=- CDDA (100%)18 -=- 18 - Niwa-Tori Otoko To Akai Kubi 3 (Nightmare 3).flac -=- CDDA (100%)19 -=- 19 - Battle (Deprive 2).flac -=- CDDA (100%)20 -=- 20 - Presence I.flac -=- CDDA (100%)21 -=- 21 - Presence IV.flac -=- ERROR22 -=- 22 - Prologue (Clouds).flac -=- CDDA (100%)23 -=- 23 - In The White Cloud (Clouds 1).flac -=- CDDA (100%)24 -=- 24 - Silent (Clouds 4).flac -=- CDDA (100%)25 -=- 25 - Twilight[bridge](Clouds 5).flac -=- CDDA (100%)26 -=- 26 - Buruu Na Kimochi - 'I Got The Blues' (Starlight Angel 4).flac -=- CDDA (99%)27 -=- 27 - See You Again (Ending).flac -=- ERROR

Summary 98,41% CDDA

241070340
<div class="clear" style="height: 8px;"></div>

Трекер:  [ 08-Фев-2017 05:00 ]

  

Скачать .torrent

Размер .torrent файла 17 KB


Размер: 364 MB
Хэш (hash) релиза: 9d4c90d20bce250eb2ce932c933d1901729d8756

Еще никто не оставлял запись к записи скачать торрент Карнавал Роботов Robot Carnival . Будь первым!

!Обратная связь