Betrayal 1. Sezon | Love Island 2015 S04E03 HDTV x264-JIVE mp4 27 minutes | Season 2 Episode 9 Rule #81: There's No Crying in Porn

Скачать через торрент [VIDEO] Кикбоксер Kickboxer: Vengeance бесплатно русская версия torrent активатор

Статистика раздачи
Размер:  1.79 GB   |    Зарегистрирован:  1 год 5 месяцев   |    .torrent скачан:  45 раз   |   
Раздают:  1  
   
загрузка...
 
Автор Сообщение

Galfimbul

avatar Galfimbul


Кикбоксер / Kickboxer: Vengeance
Премьера: 14 июля 2016
Оригинальное название: Kickboxer: Vengeance
Страна: США
Жанр: боевик
Возраст: 16+

Режиссер: Джон Стокуэлл / John Stockwell

В ролях: Ален Мусси, Жорж Сен-Пьер, Т.Дж. Сторм, Мэттью Зифф, Сэм Медина, Дэйв Батиста, Сью-Линн Ансари, Даррен Шалави, Джина Карано, Хоун Трэн, Жан-Клод Ван Дамм

Описание: Сюжет разворачивается вокруг братьев из калифорнийской династии бойцов Эрика и Курта Слоан. Эрик погибает в одном из поединков в Гонконге. Узнав об этом, Курт едет в Таиланд к своему наставнику, с помощью которого рассчитывает обрести силу воли, чтобы отомстить за смерть брата.

Продолжительность: 01:30:23
Перевод: Профессиональный многоголосый [СПД]
Оригинальная дорожка: нет

Автор рипа:

Качество видео: BDRip Исходник: Blu-Ray Remux (1080p) Формат: mp4
Видео кодек: MPEG-4 AVC Аудио кодек: AAC
Видео: 1280x534 (2.40:1) at 23.976 fps, AVC at 2 706 kbps avg, 0.165 bit/pixel
Аудио №1 Rus: 48.0 KHz, AAC, 2 ch, 128.0 Kbps
Субтитры: нет
Навигация по главам: есть
Размер: 1.79 GiB
avs [info]: 1280x536p 1:1 @ 24/1 fps (cfr)
x264 [info]: using SAR=1/1
x264 [info]: using cpu capabilities: MMX2 SSE2Fast SSSE3 Cache64
x264 [info]: profile High, level 4.1
x264 [info]: frame I:1204 Avg QP:15.68 size:105271
x264 [info]: frame P:39969 Avg QP:19.13 size: 31402
x264 [info]: frame B:132550 Avg QP:21.81 size: 8022
x264 [info]: consecutive B-frames: 1.8% 2.5% 8.8% 33.3% 19.1% 26.3% 8.2%
x264 [info]: mb I I16..4: 7.5% 73.2% 19.3%
x264 [info]: mb P I16..4: 1.9% 10.4% 1.3% P16..4: 44.9% 21.9% 11.9% 0.0% 0.0% skip: 7.7%
x264 [info]: mb B I16..4: 0.2% 1.0% 0.1% B16..8: 39.9% 8.0% 2.1% direct: 6.3% skip:42.4% L0:43.4% L1:47.0% BI: 9.6%
x264 [info]: 8x8 transform intra:76.5% inter:67.0%
x264 [info]: coded y,uvDC,uvAC intra: 77.0% 65.3% 25.2% inter: 25.3% 20.5% 1.0%
x264 [info]: i16 v,h,dc,p: 20% 18% 9% 53%
x264 [info]: i8 v,h,dc,ddl,ddr,vr,hd,vl,hu: 10% 8% 8% 9% 14% 13% 14% 11% 13%
x264 [info]: i4 v,h,dc,ddl,ddr,vr,hd,vl,hu: 11% 8% 4% 8% 15% 14% 15% 10% 14%
x264 [info]: i8c dc,h,v,p: 40% 29% 18% 13%
x264 [info]: Weighted P-Frames: Y:12.0% UV:3.9%
x264 [info]: ref P L0: 44.3% 14.7% 14.7% 8.1% 6.5% 3.6% 3.0% 2.0% 2.5% 0.4% 0.0%
x264 [info]: ref B L0: 76.7% 9.4% 4.9% 2.8% 3.3% 1.6% 1.0% 0.4%
x264 [info]: ref B L1: 93.9% 6.1%
x264 [info]: kb/s:2702.37
encoded 173723 frames, 1.91 fps, 2702.37 kb/s
GeneralFormat : MPEG-4Format profile : Base MediaCodec ID : isom (isom)File size : 1.79 GiBDuration : 1 h 30 minOverall bit rate mode : VariableOverall bit rate : 2 842 kb/sMovie name : Кикбоксер | KinoGadgetPerformer : Джон СтокуэллDirector : Джон СтокуэллActor : Ален Мусси / Жорж Сен-Пьер / Т.Дж. Сторм / Мэттью Зифф / Сэм Медина / Дэйв Батиста / Сью-Линн Ансари / Даррен Шалави / Джина Карано / Хоун Трэн / Жан-Клод Ван ДаммScreenplay by : Димитри Логотетис / Джим МакГратProducer : Николас Целоцци / Тед Филд / Аллен КнудсонGenre : ActionContentType : Short FilmRecorded date : 2016Encoded date : UTC 2017-02-07 19:36:09Tagged date : UTC 2017-02-07 19:45:25Cover : YesLongDescription : Сюжет разворачивается вокруг братьев из калифорнийской династии бойцов Эрика и Курта Слоан. Эрик погибает в одном из поединков в Гонконге. Узнав об этом, Курт едет в Таиланд к своему наставнику, с помощью которого рассчитывает обрести силу воли, чтобы отомстить за смерть брата.HDVideo : Yes

VideoID : 1Format : AVCFormat/Info : Advanced Video CodecFormat profile : [email protected] settings, CABAC : YesFormat settings, ReFrames : 11 framesCodec ID : avc1Codec ID/Info : Advanced Video CodingDuration : 1 h 30 minBit rate : 2 706 kb/sMaximum bit rate : 26.6 Mb/sWidth : 1 280 pixelsHeight : 534 pixelsDisplay aspect ratio : 2.40:1Frame rate mode : ConstantFrame rate : 23.976 (24000/1001) FPSColor space : YUVChroma subsampling : 4:2:0Bit depth : 8 bitsScan type : ProgressiveBits/(Pixel*Frame) : 0.165Stream size : 1.71 GiB (95%)Writing library : x264 core 148 r2638 7599210Encoding settings : cabac=1 / ref=11 / deblock=1:-1:-1 / analyse=0x3:0x113 / me=umh / subme=9 / psy=1 / psy_rd=1.00:0.00 / mixed_ref=1 / me_range=32 / chroma_me=1 / trellis=2 / 8x8dct=1 / cqm=0 / deadzone=21,11 / fast_pskip=0 / chroma_qp_offset=-2 / threads=3 / lookahead_threads=1 / sliced_threads=0 / nr=0 / decimate=1 / interlaced=0 / bluray_compat=0 / constrained_intra=0 / bframes=6 / b_pyramid=2 / b_adapt=2 / b_bias=0 / direct=1 / weightb=1 / open_gop=0 / weightp=2 / keyint=250 / keyint_min=25 / scenecut=40 / intra_refresh=0 / rc_lookahead=60 / rc=crf / mbtree=1 / crf=18.5 / qcomp=0.60 / qpmin=0 / qpmax=69 / qpstep=4 / vbv_maxrate=62500 / vbv_bufsize=78125 / crf_max=0.0 / nal_hrd=none / filler=0 / ip_ratio=1.40 / aq=1:1.00Encoded date : UTC 2017-02-07 17:56:25Tagged date : UTC 2017-02-07 19:36:47

AudioID : 2Format : AACFormat/Info : Advanced Audio CodecFormat profile : LCCodec ID : 40Duration : 1 h 30 minBit rate mode : VariableBit rate : 128 kb/sMaximum bit rate : 134 kb/sChannel(s) : 2 channelsChannel positions : Front: L RSampling rate : 48.0 kHzFrame rate : 46.875 FPS (1024 spf)Compression mode : LossyStream size : 82.8 MiB (5%)Title : P [SPD]Language : RussianEncoded date : UTC 2017-02-07 17:59:30Tagged date : UTC 2017-02-07 19:36:47

Menu00:00:00.000 : 00:00:00.00000:09:58.807 : 00:09:58.80700:19:27.500 : 00:19:27.50000:30:01.383 : 00:30:01.38300:39:43.339 : 00:39:43.33900:50:19.183 : 00:50:19.18301:00:29.417 : 01:00:29.41701:08:08.835 : 01:08:08.83501:14:56.826 : 01:14:56.82601:24:47.291 : 01:24:47.291
<a href="tracker.php?rid=39840292" class="postLink"> </a>
<div class="clear" style="height: 8px;"></div>

Трекер:  [ 07-Фев-2017 22:00 ]

  

Скачать .torrent

Размер .torrent файла 18 KB


Размер: 1.79 GB
Хэш (hash) релиза: f0de57b7f5566bbb00baaf2d8226de646611134d

Еще никто не оставлял запись к записи скачать торрент [VIDEO] Кикбоксер Kickboxer: Vengeance . Будь первым!

!Обратная связь