Druaga no Tou | Burza / La Tempestad | Brand New Brand Thinking: Brought to Life by 11 Experts Who Do

Скачать через торрент [VIDEO] Свадьба в Малиновке бесплатно русская версия torrent активатор

Статистика раздачи
Размер:  419 MB   |    Зарегистрирован:  1 год 5 месяцев   |    .torrent скачан:  27 раз   |   
Раздают:  1  
   
загрузка...
 
Автор Сообщение

Galfimbul

avatar Galfimbul


<span class="post-font-serif1">Свадьба в Малиновке</span>

<span class="post-font-serif1">Год выпуска: 1967
Страна: СССР
Жанр: мюзикл, комедия, военный
Продолжительность: 01:32:20
Перевод: не требуется
Cубтитры: нет</span>
<span class="post-font-serif1">Режиссер: Андрей Тутышкин</span>
<span class="post-font-serif1">В ролях: Владимир Самойлов, Людмила Алфимова, Валентина Лысенко, Евгений Лебедев, Зоя Фёдорова, Гелий Сысоев, Михаил Пуговкин, Николай Сличенко, Андрей Абрикосов, Григорий Абрикосов, Михаил Водяной, Тамара Носова, Эмма Трейвас, Алексей Смирнов, Маргарита Криницына, Александр Орлов, Юрий Шепелев, Любовь Тищенко, Александр Захаров, Раиса Пироженко, Алексей Захаров, Николай Пишванов, Лев Степанов, Валентина Николаенко и другие .</span>
<span class="post-font-serif1">Описание: Идет гражданская воина. В украинской деревне то и дело меняется власть. Чтобы разделаться с бандой головорезов, красный командир уговаривает девушку Яринку разыграть ее свадьбу с атаманом…</span>
<span class="post-font-serif1">Релиз группы </span>
<span class="post-font-serif1">Качество: HDRip / рип с BDRip 720p
Формат: MP4
Видео кодек: XviD
Аудио кодек: AAC
Видео: 480x200 AR:2.40 499 kbps 23.976 fps
Аудио: 2ch 48 kHz 128 kbps</span>
GeneralComplete name : D:\Torrents\Свадьба в Малиновке.1967.HDRip.XviD.480x.rip by Frost O.S.mp4Format : MPEG-4Format profile : Base MediaCodec ID : isom (isom)File size : 419 MiBDuration : 1 h 32 minOverall bit rate mode : VariableOverall bit rate : 635 kb/sMovie name : Свадьба в Малиновке 1967 HDRip XviD 480x rip by Frost O SGenre : WarContentType : Short FilmEncoded date : UTC 2017-02-07 14:16:06Tagged date : UTC 2017-02-07 14:16:39Writing application : MkvToMp4 version: 0.224 (x64)Cover : YesComment : rip by Frost O.S

VideoID : 1Format : MPEG-4 VisualFormat profile : Advanced [email protected] settings, BVOP : YesFormat settings, QPel : NoFormat settings, GMC : No warppointsFormat settings, Matrix : CustomCodec ID : 20Duration : 1 h 32 minBit rate mode : VariableBit rate : 499 kb/sMaximum bit rate : 1 920 kb/sWidth : 480 pixelsHeight : 200 pixelsDisplay aspect ratio : 2.40:1Frame rate mode : ConstantFrame rate : 23.976 (24000/1001) FPSOriginal frame rate : 23.976 (23976/1000) FPSColor space : YUVChroma subsampling : 4:2:0Bit depth : 8 bitsScan type : ProgressiveCompression mode : LossyBits/(Pixel*Frame) : 0.217Stream size : 329 MiB (79%)Title : avi_GPAC0.5.2_DEV_rev248_g39d5978_masterWriting library : XviD 1.2.1 (UTC 2008-12-04)Language : EnglishTagged date : UTC 2017-02-07 14:16:15

AudioID : 2Format : AACFormat/Info : Advanced Audio CodecFormat profile : LCCodec ID : 40Duration : 1 h 32 minBit rate mode : VariableBit rate : 128 kb/sMaximum bit rate : 133 kb/sChannel(s) : 2 channelsChannel positions : Front: L RSampling rate : 48.0 kHzFrame rate : 46.875 FPS (1024 spf)Compression mode : LossyStream size : 84.5 MiB (20%)Language : RussianDefault : YesAlternate group : 1Encoded date : UTC 2017-02-07 14:16:13Tagged date : UTC 2017-02-07 14:16:15
<div class="clear" style="height: 8px;"></div>

Трекер:  [ 07-Фев-2017 16:30 ]

  

Скачать .torrent

Размер .torrent файла 17 KB


Размер: 419 MB
Хэш (hash) релиза: 38af959b92f0e366c5856a54e1364906d7587822

Торренты, похожие на [VIDEO] Свадьба в Малиновке скачать торрент

Форум Название Автор Размер S L Добавлен
Видео (Фильмы/Клипы) ·· [VIDEO] Свадьба в Малиновке (Андрей Тутышкин) [1967, мюзикл, комедия, военный, BDRip] [MP4, 960x] Galfimbul 14870011531.38 GB 0 0 1486474458

16:34

7-Фев-17

Еще никто не оставлял запись к записи скачать торрент [VIDEO] Свадьба в Малиновке . Будь первым!

!Обратная связь