Heather Toone | Denis Akiyama | Running Man Episode 7

Скачать через торрент [VIDEO] Свадьба в Малиновке бесплатно русская версия torrent активатор

Статистика раздачи
Размер:  1.38 GB   |    Зарегистрирован:  1 год 5 месяцев   |    .torrent скачан:  32 раза   |   
Раздают:  1  
   
загрузка...
 
Автор Сообщение

Galfimbul

avatar Galfimbul


<span class="post-font-serif1">Свадьба в Малиновке</span>

<span class="post-font-serif1">Год выпуска: 1967
Страна: СССР
Жанр: мюзикл, комедия, военный
Продолжительность: 01:32:20
Перевод: не требуется
Cубтитры: нет</span>
<span class="post-font-serif1">Режиссер: Андрей Тутышкин</span>
<span class="post-font-serif1">В ролях: Владимир Самойлов, Людмила Алфимова, Валентина Лысенко, Евгений Лебедев, Зоя Фёдорова, Гелий Сысоев, Михаил Пуговкин, Николай Сличенко, Андрей Абрикосов, Григорий Абрикосов, Михаил Водяной, Тамара Носова, Эмма Трейвас, Алексей Смирнов, Маргарита Криницына, Александр Орлов, Юрий Шепелев, Любовь Тищенко, Александр Захаров, Раиса Пироженко, Алексей Захаров, Николай Пишванов, Лев Степанов, Валентина Николаенко и другие .</span>
<span class="post-font-serif1">Описание: Идет гражданская воина. В украинской деревне то и дело меняется власть. Чтобы разделаться с бандой головорезов, красный командир уговаривает девушку Яринку разыграть ее свадьбу с атаманом…</span>
<span class="post-font-serif1">Релиз группы </span>
<span class="post-font-serif1">Качество: BDRip / рип с Blu-ray 1080p
Формат: MP4
Видео кодек: H.264
Аудио кодек: AAC
Видео: 960x408 AR:2.35 2011 kbps 23.976 fps
Аудио: 2ch 48 kHz 128 kbps</span>
avs [info]: 960x408p 1:1 @ 2997/125 fps (cfr)
x264 [info]: using SAR=1/1
x264 [info]: using cpu capabilities: MMX2 SSE2Fast SSSE3 SSE4.2 AVX FMA3 AVX2 LZCNT BMI2
x264 [info]: profile High, level 4.1

x264 [info]: frame I:741 Avg QP:22.11 size: 54193
x264 [info]: frame P:32770 Avg QP:24.18 size: 21113
x264 [info]: frame B:99307 Avg QP:26.49 size: 6653
x264 [info]: consecutive B-frames: 2.7% 2.5% 10.3% 39.4% 15.0% 29.0% 0.9% 0.2%
x264 [info]: mb I I16..4: 6.0% 73.8% 20.2%
x264 [info]: mb P I16..4: 0.2% 8.4% 1.9% P16..4: 33.8% 37.7% 14.6% 0.0% 0.0% skip: 3.4%
x264 [info]: mb B I16..4: 0.0% 1.3% 0.2% B16..8: 33.5% 21.7% 4.8% direct: 5.2% skip:33.3% L0:35.3% L1:42.8% BI:21.8%
x264 [info]: 8x8 transform intra:80.1% inter:64.6%
x264 [info]: coded y,uvDC,uvAC intra: 93.8% 87.1% 57.0% inter: 27.4% 23.7% 2.5%
x264 [info]: i16 v,h,dc,p: 12% 24% 2% 62%
x264 [info]: i8 v,h,dc,ddl,ddr,vr,hd,vl,hu: 12% 6% 3% 10% 16% 14% 15% 12% 13%
x264 [info]: i4 v,h,dc,ddl,ddr,vr,hd,vl,hu: 11% 6% 2% 8% 16% 15% 16% 11% 13%
x264 [info]: i8c dc,h,v,p: 37% 22% 20% 20%
x264 [info]: Weighted P-Frames: Y:32.8% UV:25.2%
x264 [info]: ref P L0: 51.7% 18.1% 14.2% 5.5% 3.8% 2.9% 2.8% 0.9% 0.0%
x264 [info]: ref B L0: 91.3% 4.8% 2.0% 1.0% 0.6% 0.3%
x264 [info]: ref B L1: 98.3% 1.7%
x264 [info]: kb/s:2011.35

encoded 132818 frames, 13.26 fps, 2011.36 kb/s
GeneralComplete name : D:\Torrents\Свадьба в Малиновке.1967.BDRip.x264.960x.rip by Frost O.S.mp4Format : MPEG-4Format profile : Base MediaCodec ID : isom (isom/avc1)File size : 1.38 GiBDuration : 1 h 32 minOverall bit rate mode : VariableOverall bit rate : 2 147 kb/sMovie name : Свадьба в Малиновке 1967 BDRip x264 960x rip by Frost O SGenre : WarContentType : Short FilmEncoded date : UTC 2017-02-07 12:59:35Tagged date : UTC 2017-02-07 13:01:07Writing application : MkvToMp4 version: 0.224 (x64)Cover : YesComment : rip by Frost O.S

VideoID : 1Format : AVCFormat/Info : Advanced Video CodecFormat profile : [email protected] settings, CABAC : YesFormat settings, ReFrames : 7 framesCodec ID : avc1Codec ID/Info : Advanced Video CodingDuration : 1 h 32 minBit rate : 2 011 kb/sMaximum bit rate : 8 647 kb/sWidth : 960 pixelsHeight : 408 pixelsDisplay aspect ratio : 2.35:1Frame rate mode : ConstantFrame rate : 23.976 (24000/1001) FPSOriginal frame rate : 23.976 (23976/1000) FPSColor space : YUVChroma subsampling : 4:2:0Bit depth : 8 bitsScan type : ProgressiveBits/(Pixel*Frame) : 0.214Stream size : 1.30 GiB (94%)Writing library : x264 core 148 r2705 3f5ed56Encoding settings : cabac=1 / ref=7 / deblock=1:-1:-1 / analyse=0x3:0x113 / me=umh / subme=11 / psy=1 / psy_rd=0.95:0.00 / mixed_ref=1 / me_range=32 / chroma_me=1 / trellis=2 / 8x8dct=1 / cqm=0 / deadzone=21,11 / fast_pskip=1 / chroma_qp_offset=-2 / threads=6 / lookahead_threads=1 / sliced_threads=0 / nr=0 / decimate=1 / interlaced=0 / bluray_compat=0 / constrained_intra=0 / bframes=7 / b_pyramid=2 / b_adapt=2 / b_bias=0 / direct=1 / weightb=1 / open_gop=0 / weightp=2 / keyint=250 / keyint_min=23 / scenecut=40 / intra_refresh=0 / rc=crf / mbtree=0 / crf=20.1 / qcomp=0.65 / qpmin=0 / qpmax=69 / qpstep=4 / ip_ratio=1.40 / pb_ratio=1.25 / aq=2:0.70Language : EnglishEncoded date : UTC 2017-02-07 12:59:35Tagged date : UTC 2017-02-07 13:00:08Color range : LimitedColor primaries : BT.709Transfer characteristics : BT.709Matrix coefficients : BT.709

AudioID : 2Format : AACFormat/Info : Advanced Audio CodecFormat profile : LCCodec ID : 40Duration : 1 h 32 minBit rate mode : VariableBit rate : 128 kb/sMaximum bit rate : 133 kb/sChannel(s) : 2 channelsChannel positions : Front: L RSampling rate : 48.0 kHzFrame rate : 46.875 FPS (1024 spf)Compression mode : LossyStream size : 84.5 MiB (6%)Language : RussianDefault : YesAlternate group : 1Encoded date : UTC 2017-02-07 13:00:00Tagged date : UTC 2017-02-07 13:00:08
<div class="clear" style="height: 8px;"></div>

Трекер:  [ 07-Фев-2017 15:30 ]

  

Скачать .torrent

Размер .torrent файла 14 KB


Размер: 1.38 GB
Хэш (hash) релиза: 3424a26e4bd42553ac08fb033ee611299cc53f5b

Торренты, похожие на [VIDEO] Свадьба в Малиновке скачать торрент

Форум Название Автор Размер S L Добавлен
Видео (Фильмы/Клипы) ·· [VIDEO] Свадьба в Малиновке (Андрей Тутышкин) [1967, мюзикл, комедия, военный, HDRip] [MP4, 480x] Galfimbul 439624759419 MB 0 0 1486478760

17:46

7-Фев-17

Еще никто не оставлял запись к записи скачать торрент [VIDEO] Свадьба в Малиновке . Будь первым!

!Обратная связь