where did you go, | Yu Gi Oh Zexal Subtitle Indonesia | Télécharger Part 3

Скачать через торрент [VIDEO] Дом в конце улицы House at the End of the Street бесплатно русская версия torrent активатор

Статистика раздачи
Размер:  1.82 GB   |    Зарегистрирован:  1 год 5 месяцев   |    .torrent скачан:  26 раз   |   
Раздают:  1  
   
загрузка...
 
Автор Сообщение

Galfimbul

avatar Galfimbul


Дом в конце улицы / House at the End of the Street
«Страх живёт по соседству»
Премьера: 21 сентября 2012
Оригинальное название: House at the End of the Street
Страна: Канада, США
Жанр: триллер, ужасы
Возраст: 16+

Режиссер: Марк Тондерай / Mark Tonderai

В ролях: Дженнифер Лоуренс, Элизабет Шу, Макс Тириот, Нолан Фанк, Джил Беллоуз, Криста Бриджес, Александра МакДональд, Джеймс Томас, Джой Тэннер, Джонатан Мэйлен

Описание: Переехав жить в небольшой провинциальный город, Сара и ее дочь еще не догадываются, что вскоре окажутся в эпицентре очень ужасной истории. Когда окажется, что вблизи живет серийный убийца, который несколько лет назад убил всю свою семью, хладнокровно спланировав преступление и выйдя сухим из воды.

Продолжительность: 01:40:50
Перевод: Дублированный
Оригинальная дорожка: есть

Автор рипа:

Качество видео: BDRip Исходник: BDRemux 1080p Формат: mp4
Видео кодек: MPEG-4 AVC Аудио кодек: AAC
Видео: 1280x534 (2.40:1) at 23.976 fps, AVC at 2 292 kbps avg, 0.140 bit/pixel
Аудио №1 Rus: 48.0 KHz, AAC, 2 ch, 128.0 Kbps
Аудио №2 Eng: 48.0 KHz, AAC, 2 ch, 128.0 Kbps
Субтитры: русские (форсированные, полные), английские (полные)
Навигация по главам: есть
Размер: 1.82 GiB
avs [info]: 1280x534p 1:1 @ 24000/1001 fps (cfr)
x264 [info]: using SAR=1/1
x264 [info]: using cpu capabilities: MMX2 SSE2Fast SSSE3 Cache64
x264 [info]: profile High, level 4.1
x264 [info]: frame I:966 Avg QP:16.55 size: 86274
x264 [info]: frame P:27555 Avg QP:19.91 size: 23294
x264 [info]: frame B:117884 Avg QP:21.77 size: 8691
x264 [info]: consecutive B-frames: 1.7% 1.5% 5.5% 8.0% 14.2% 50.4% 5.0% 1.2% 1.5% 1.9% 2.4% 4.1% 2.6%
x264 [info]: mb I I16..4: 11.5% 77.7% 10.8%
x264 [info]: mb P I16..4: 2.4% 9.6% 0.9% P16..4: 46.0% 18.8% 12.7% 0.0% 0.0% skip: 9.6%
x264 [info]: mb B I16..4: 0.1% 0.9% 0.1% B16..8: 44.1% 6.7% 1.5% direct: 4.8% skip:41.7% L0:46.8% L1:49.4% BI: 3.9%
x264 [info]: 8x8 transform intra:77.6% inter:68.4%
x264 [info]: coded y,uvDC,uvAC intra: 75.6% 69.7% 37.2% inter: 21.8% 18.9% 1.1%
x264 [info]: i16 v,h,dc,p: 41% 14% 8% 37%
x264 [info]: i8 v,h,dc,ddl,ddr,vr,hd,vl,hu: 13% 5% 7% 11% 16% 15% 13% 11% 10%
x264 [info]: i4 v,h,dc,ddl,ddr,vr,hd,vl,hu: 12% 5% 3% 10% 17% 16% 14% 11% 11%
x264 [info]: i8c dc,h,v,p: 36% 24% 20% 19%
x264 [info]: Weighted P-Frames: Y:5.4% UV:3.3%
x264 [info]: ref P L0: 47.6% 9.1% 18.3% 7.0% 5.6% 4.1% 3.6% 2.2% 2.1% 0.4% 0.0%
x264 [info]: ref B L0: 72.1% 12.6% 6.5% 3.2% 2.3% 1.9% 1.0% 0.3%
x264 [info]: ref B L1: 91.5% 8.5%
x264 [info]: kb/s:2292.36
encoded 146405 frames, 1.65 fps, 2292.36 kb/s
GeneralFormat : MPEG-4Format profile : Base MediaCodec ID : isom (isom)File size : 1.82 GiBDuration : 1 h 41 minOverall bit rate mode : VariableOverall bit rate : 2 560 kb/sMovie name : Дом в конце улицы| KinoGadgetPerformer : Марк ТондерайDirector : Марк ТондерайActor : Дженнифер Лоуренс / Элизабет Шу / Макс Тириот / Нолан Фанк / Джил Беллоуз / Криста Бриджес / Александра МакДональд / Джеймс Томас / Джой Тэннер / Джонатан МэйленScreenplay by : Дэвид Лука / Джонатан МостоуProducer : Питер Блок / Хэл Либерман / Аарон РайдерGenre : Horror, ThrillerContentType : Short FilmRecorded date : 2012Encoded date : UTC 2017-02-05 13:21:49Tagged date : UTC 2017-02-07 07:56:58Cover : YesContentRating : mpaa|PG-13|300|LongDescription : Переехав жить в небольшой провинциальный город, Сара и ее дочь еще не догадываются, что вскоре окажутся в эпицентре ужаса…HDVideo : Yes

VideoID : 1Format : AVCFormat/Info : Advanced Video CodecFormat profile : [email protected] settings, CABAC : YesFormat settings, ReFrames : 9 framesCodec ID : avc1Codec ID/Info : Advanced Video CodingDuration : 1 h 41 minBit rate : 2 292 kb/sMaximum bit rate : 15.0 Mb/sWidth : 1 280 pixelsHeight : 534 pixelsDisplay aspect ratio : 2.40:1Frame rate mode : ConstantFrame rate : 23.976 (24000/1001) FPSColor space : YUVChroma subsampling : 4:2:0Bit depth : 8 bitsScan type : ProgressiveBits/(Pixel*Frame) : 0.140Stream size : 1.63 GiB (90%)Writing library : x264 core 148 r2638 7599210Encoding settings : cabac=1 / ref=9 / deblock=1:-1:-1 / analyse=0x3:0x113 / me=umh / subme=9 / psy=1 / psy_rd=1.00:0.00 / mixed_ref=1 / me_range=32 / chroma_me=1 / trellis=2 / 8x8dct=1 / cqm=0 / deadzone=21,11 / fast_pskip=0 / chroma_qp_offset=-2 / threads=3 / lookahead_threads=1 / sliced_threads=0 / nr=0 / decimate=1 / interlaced=0 / bluray_compat=0 / constrained_intra=0 / bframes=12 / b_pyramid=2 / b_adapt=2 / b_bias=0 / direct=1 / weightb=1 / open_gop=0 / weightp=2 / keyint=250 / keyint_min=25 / scenecut=40 / intra_refresh=0 / rc_lookahead=60 / rc=crf / mbtree=1 / crf=20.0 / qcomp=0.60 / qpmin=0 / qpmax=69 / qpstep=4 / vbv_maxrate=62500 / vbv_bufsize=78125 / crf_max=0.0 / nal_hrd=none / filler=0 / ip_ratio=1.40 / aq=1:1.00Encoded date : UTC 2017-02-05 11:01:01Tagged date : UTC 2017-02-05 13:22:27

Audio #1ID : 2Format : AACFormat/Info : Advanced Audio CodecFormat profile : LCCodec ID : 40Duration : 1 h 41 minBit rate mode : VariableBit rate : 128 kb/sMaximum bit rate : 135 kb/sChannel(s) : 2 channelsChannel positions : Front: L RSampling rate : 48.0 kHzFrame rate : 46.875 FPS (1024 spf)Compression mode : LossyStream size : 93.2 MiB (5%)Title : DubLanguage : RussianEncoded date : UTC 2017-02-05 11:08:05Tagged date : UTC 2017-02-05 13:22:27

Audio #2ID : 3Format : AACFormat/Info : Advanced Audio CodecFormat profile : LCCodec ID : 40Duration : 1 h 41 minBit rate mode : VariableBit rate : 128 kb/sMaximum bit rate : 135 kb/sChannel(s) : 2 channelsChannel positions : Front: L RSampling rate : 48.0 kHzFrame rate : 46.875 FPS (1024 spf)Compression mode : LossyStream size : 93.2 MiB (5%)Language : EnglishEncoded date : UTC 2017-02-05 11:20:37Tagged date : UTC 2017-02-05 13:22:27

Text #1ID : 4Format : Timed TextCodec ID : tx3gDuration : 1 h 21 minBit rate mode : VariableBit rate : 1 b/sStream size : 449 Bytes (0%)Title : ForcedLanguage : RussianForced : NoEncoded date : UTC 2017-02-05 13:22:27Tagged date : UTC 2017-02-05 13:22:27

Text #2ID : 5Format : Timed TextCodec ID : tx3gDuration : 1 h 33 minBit rate mode : VariableBit rate : 66 b/sStream size : 45.3 KiB (0%)Title : FullLanguage : RussianForced : NoEncoded date : UTC 2017-02-05 13:22:27Tagged date : UTC 2017-02-05 13:22:27

Text #3ID : 6Format : Timed TextCodec ID : tx3gDuration : 1 h 41 minBit rate mode : VariableBit rate : 39 b/sStream size : 28.7 KiB (0%)Title : FullLanguage : EnglishForced : NoEncoded date : UTC 2017-02-05 13:22:27Tagged date : UTC 2017-02-05 13:22:27

Menu00:00:00.000 : 00:00:00.00000:04:30.729 : 00:04:30.72900:08:55.160 : 00:08:55.16000:13:02.949 : 00:13:02.94900:17:14.450 : 00:17:14.45000:23:05.342 : 00:23:05.34200:28:31.752 : 00:28:31.75200:35:37.719 : 00:35:37.71900:39:06.427 : 00:39:06.42700:42:46.772 : 00:42:46.77200:46:20.444 : 00:46:20.44400:51:48.772 : 00:51:48.77200:59:14.342 : 00:59:14.34201:03:59.085 : 01:03:59.08501:07:26.334 : 01:07:26.33401:11:07.972 : 01:11:07.97201:15:20.808 : 01:15:20.80801:18:41.091 : 01:18:41.09101:23:02.978 : 01:23:02.97801:26:48.787 : 01:26:48.78701:30:13.825 : 01:30:13.82501:31:26.731 : 01:31:26.73101:35:31.601 : 01:35:31.601
<a href="tracker.php?rid=39840292" class="postLink"> </a>
<div class="clear" style="height: 8px;"></div>

Трекер:  [ 07-Фев-2017 11:00 ]

  

Скачать .torrent

Размер .torrent файла 18 KB


Размер: 1.82 GB
Хэш (hash) релиза: d1f4913a52e35ac025401a6a06b4e1d24aacb455

Еще никто не оставлял запись к записи скачать торрент [VIDEO] Дом в конце улицы House at the End of the Street . Будь первым!

!Обратная связь