VA - The Dome Summer 2016 [2CD] (2016) FLAC | muder at 1600 720p | Sphinx-based search

Скачать через торрент [VIDEO] Вий бесплатно русская версия torrent активатор

Статистика раздачи
Размер:  315 MB   |    Зарегистрирован:  1 год 5 месяцев   |    .torrent скачан:  31 раз   |   
Раздают:  1  
   
загрузка...
 
Автор Сообщение

Galfimbul

avatar Galfimbul


<span class="post-font-serif1">Вий</span>

<span class="post-font-serif1">Год выпуска: 1967
Страна: СССР
Жанр: ужасы, фэнтези, драма, страшная сказка, экранизация
Продолжительность:
Перевод: не требуется
Cубтитры: нет</span>
<span class="post-font-serif1">Режиссеры: Константин Ершов, Георгий Кропачев</span>
<span class="post-font-serif1">В ролях: Леонид Куравлев, Наталья Варлей, Алексей Глазырин, Вадим Захарченко, Николай Кутузов, Пётр Вескляров, Дмитрий Капка, Степан Шкурат, Николай Яковченко, Николай Панасьев, Владимир Сальников, Борислав Брондуков и другие .</span>
<span class="post-font-serif1">Описание: Студент-философ Хома Брут должен провести несколько ночей у гроба умершей панночки в старой церквушке в далекой деревне. Сможет ли он побороть свой страх, или ему придется столкнуться с нечистой силой?..</span>
<span class="post-font-serif1">Релиз группы </span>
<span class="post-font-serif1">Качество: HDRip / рип с BDRip 720p
Формат: MP4
Видео кодек: XviD
Аудио кодек: AAC
Видео: 432x320 AR:4/3 436 kbps 23.976 fps
Аудио: 2ch 48 kHz 128 kbps</span>
GeneralComplete name : D:\Torrents\Вий.1967.HDRip.XviD.480x.rip by Frost O.S.mp4Format : MPEG-4Format profile : Base MediaCodec ID : isom (isom)File size : 315 MiBDuration : 1 h 16 minOverall bit rate mode : VariableOverall bit rate : 572 kb/sMovie name : Вий 1967 HDRip XviD 480x rip by Frost O SGenre : HorrorContentType : Short FilmEncoded date : UTC 2017-02-07 07:54:32Tagged date : UTC 2017-02-07 07:55:23Writing application : MkvToMp4 version: 0.224 (x64)Cover : YesComment : rip by Frost O.S

VideoID : 1Format : MPEG-4 VisualFormat profile : Advanced [email protected] settings, BVOP : YesFormat settings, QPel : NoFormat settings, GMC : No warppointsFormat settings, Matrix : CustomCodec ID : 20Duration : 1 h 16 minBit rate mode : VariableBit rate : 436 kb/sMaximum bit rate : 3 318 kb/sWidth : 432 pixelsHeight : 320 pixelsDisplay aspect ratio : 4:3Frame rate mode : ConstantFrame rate : 23.976 (24000/1001) FPSOriginal frame rate : 23.976 (23976/1000) FPSColor space : YUVChroma subsampling : 4:2:0Bit depth : 8 bitsScan type : ProgressiveCompression mode : LossyBits/(Pixel*Frame) : 0.132Stream size : 240 MiB (76%)Title : avi_GPAC0.5.2_DEV_rev248_g39d5978_masterWriting library : XviD 1.2.1 (UTC 2008-12-04)Language : EnglishTagged date : UTC 2017-02-07 07:54:57

AudioID : 2Format : AACFormat/Info : Advanced Audio CodecFormat profile : LCCodec ID : 40Duration : 1 h 16 minBit rate mode : VariableBit rate : 128 kb/sMaximum bit rate : 130 kb/sChannel(s) : 2 channelsChannel positions : Front: L RSampling rate : 48.0 kHzFrame rate : 46.875 FPS (1024 spf)Compression mode : LossyStream size : 70.4 MiB (22%)Language : RussianDefault : YesAlternate group : 1Encoded date : UTC 2017-02-07 07:54:48Tagged date : UTC 2017-02-07 07:54:57
<div class="clear" style="height: 8px;"></div>

Трекер:  [ 07-Фев-2017 11:00 ]

  

Скачать .torrent

Размер .torrent файла 12 KB


Размер: 315 MB
Хэш (hash) релиза: eac21db474995f9050916beaeae8f18e957837b0

Еще никто не оставлял запись к записи скачать торрент [VIDEO] Вий . Будь первым!

!Обратная связь