ASP/ASP.NET | Download | Manuale di Storytelling

Скачать через торрент [VIDEO] 28 панфиловцев бесплатно русская версия torrent активатор

Статистика раздачи
Размер:  2.39 GB   |    Зарегистрирован:  1 год 5 месяцев   |    .torrent скачан:  63 раза   |   
Раздают:  1  
   
загрузка...
 
Автор Сообщение

Galfimbul

avatar Galfimbul


28 панфиловцев
Премьера: 24 ноября 2016
Оригинальное название: 28 панфиловцев
Страна: Россия
Жанр: военный, драма
Возраст: 12+

Режиссер: Ким Дружинин, Андрей Шальопа

В ролях: Александр Устюгов, Яков Кучеревский, Азамат Нигманов, Олег Фёдоров, Алексей Морозов, Антон Кузнецов, Алексей Лонгин, Максим Белбородов, Дмитрий Мурашев, Виталий Коваленко

Описание: Осенью 1941-го года немецкие части, стоявшие возле Волоколамска, отделяло от Москвы каких-нибудь два часа по шоссе. Однако, на этом шоссе стояла 316-я стрелковая дивизия под командованием генерала И. В. Панфилова. Этот военачальник обладал настолько высоким авторитетом среди личного состава, что бойцы дивизии сами называли себя панфиловцами. А дивизию — панфиловской.

Продолжительность: 02:00:38
Перевод: Оригинал (русский) [Лицензия]
Оригинальная дорожка: нет

Автор рипа:

Качество видео: BDRip Исходник: Blu-Ray Remux (1080p) Формат: mp4
Видео кодек: MPEG-4 AVC Аудио кодек: AAC
Видео: 1280x536 (2.40:1) at 24.000 fps, AVC at 2 702 kbps avg, 0.164 bit/pixel
Аудио №1 Rus: 48.0 KHz, AAC, 2 ch, 128.0 Kbps
Субтитры: нет
Навигация по главам: есть
Размер: 2.39 GiB
avs [info]: 1280x536p 1:1 @ 24/1 fps (cfr)
x264 [info]: using SAR=1/1
x264 [info]: using cpu capabilities: MMX2 SSE2Fast SSSE3 Cache64
x264 [info]: profile High, level 4.1
x264 [info]: frame I:1204 Avg QP:15.68 size:105271
x264 [info]: frame P:39969 Avg QP:19.13 size: 31402
x264 [info]: frame B:132550 Avg QP:21.81 size: 8022
x264 [info]: consecutive B-frames: 1.8% 2.5% 8.8% 33.3% 19.1% 26.3% 8.2%
x264 [info]: mb I I16..4: 7.5% 73.2% 19.3%
x264 [info]: mb P I16..4: 1.9% 10.4% 1.3% P16..4: 44.9% 21.9% 11.9% 0.0% 0.0% skip: 7.7%
x264 [info]: mb B I16..4: 0.2% 1.0% 0.1% B16..8: 39.9% 8.0% 2.1% direct: 6.3% skip:42.4% L0:43.4% L1:47.0% BI: 9.6%
x264 [info]: 8x8 transform intra:76.5% inter:67.0%
x264 [info]: coded y,uvDC,uvAC intra: 77.0% 65.3% 25.2% inter: 25.3% 20.5% 1.0%
x264 [info]: i16 v,h,dc,p: 20% 18% 9% 53%
x264 [info]: i8 v,h,dc,ddl,ddr,vr,hd,vl,hu: 10% 8% 8% 9% 14% 13% 14% 11% 13%
x264 [info]: i4 v,h,dc,ddl,ddr,vr,hd,vl,hu: 11% 8% 4% 8% 15% 14% 15% 10% 14%
x264 [info]: i8c dc,h,v,p: 40% 29% 18% 13%
x264 [info]: Weighted P-Frames: Y:12.0% UV:3.9%
x264 [info]: ref P L0: 44.3% 14.7% 14.7% 8.1% 6.5% 3.6% 3.0% 2.0% 2.5% 0.4% 0.0%
x264 [info]: ref B L0: 76.7% 9.4% 4.9% 2.8% 3.3% 1.6% 1.0% 0.4%
x264 [info]: ref B L1: 93.9% 6.1%
x264 [info]: kb/s:2702.37
encoded 173723 frames, 1.91 fps, 2702.37 kb/s
GeneralFormat : MPEG-4Format profile : Base MediaCodec ID : isom (isom)File size : 2.39 GiBDuration : 2 h 0 minOverall bit rate mode : VariableOverall bit rate : 2 838 kb/sMovie name : 28 панфиловцев | KinoGadgetPerformer : Ким Дружинин, Андрей ШальопаDirector : Ким Дружинин / Андрей ШальопаActor : Александр Устюгов / Яков Кучеревский / Азамат Нигманов / Олег Фёдоров / Алексей Морозов / Антон Кузнецов / Алексей Лонгин / Максим Белбородов / Дмитрий Мурашев / Виталий КоваленкоScreenplay by : Андрей ШальопаProducer : Андрей Шальопа / Антон ЮдинцевGenre : DramaContentType : Short FilmRecorded date : 2016Encoded date : UTC 2017-02-06 18:03:13Tagged date : UTC 2017-02-07 08:24:45Cover : YesContentRating : mpaa|PG-13|300|LongDescription : Осенью 1941-го года немецкие части, стоявшие возле Волоколамска, отделяло от Москвы каких-нибудь два часа по шоссе. Однако, на этом шоссе стояла 316-я стрелковая дивизия под командованием генерала И. В. Панфилова. Этот военачальник обладал настолько высоким авторитетом среди личного состава, что бойцы дивизии сами называли себя панфиловцами. А дивизию — панфиловской.HDVideo : Yes

VideoID : 1Format : AVCFormat/Info : Advanced Video CodecFormat profile : [email protected] settings, CABAC : YesFormat settings, ReFrames : 9 framesCodec ID : avc1Codec ID/Info : Advanced Video CodingDuration : 2 h 0 minBit rate : 2 702 kb/sMaximum bit rate : 13.2 Mb/sWidth : 1 280 pixelsHeight : 536 pixelsDisplay aspect ratio : 2.40:1Frame rate mode : ConstantFrame rate : 24.000 FPSColor space : YUVChroma subsampling : 4:2:0Bit depth : 8 bitsScan type : ProgressiveBits/(Pixel*Frame) : 0.164Stream size : 2.28 GiB (95%)Writing library : x264 core 148 r2638 7599210Encoding settings : cabac=1 / ref=9 / deblock=1:-1:-1 / analyse=0x3:0x113 / me=umh / subme=9 / psy=1 / psy_rd=1.00:0.00 / mixed_ref=1 / me_range=32 / chroma_me=1 / trellis=2 / 8x8dct=1 / cqm=0 / deadzone=21,11 / fast_pskip=0 / chroma_qp_offset=-2 / threads=3 / lookahead_threads=1 / sliced_threads=0 / nr=0 / decimate=1 / interlaced=0 / bluray_compat=0 / constrained_intra=0 / bframes=6 / b_pyramid=2 / b_adapt=2 / b_bias=0 / direct=1 / weightb=1 / open_gop=0 / weightp=2 / keyint=250 / keyint_min=25 / scenecut=40 / intra_refresh=0 / rc_lookahead=60 / rc=crf / mbtree=1 / crf=19.0 / qcomp=0.60 / qpmin=0 / qpmax=69 / qpstep=4 / vbv_maxrate=62500 / vbv_bufsize=78125 / crf_max=0.0 / nal_hrd=none / filler=0 / ip_ratio=1.40 / aq=1:1.00Encoded date : UTC 2017-02-06 17:31:20Tagged date : UTC 2017-02-06 18:03:59

AudioID : 2Format : AACFormat/Info : Advanced Audio CodecFormat profile : LCCodec ID : 40Duration : 2 h 0 minBit rate mode : VariableBit rate : 128 kb/sMaximum bit rate : 135 kb/sChannel(s) : 2 channelsChannel positions : Front: L RSampling rate : 48.0 kHzFrame rate : 46.875 FPS (1024 spf)Compression mode : LossyStream size : 110 MiB (5%)Title : LicenseLanguage : RussianEncoded date : UTC 2017-02-06 17:46:43Tagged date : UTC 2017-02-06 18:03:59

Menu00:00:00.000 : Chapter 0100:01:24.375 : Chapter 0200:11:59.208 : Chapter 0300:26:15.791 : Chapter 0400:38:43.625 : Chapter 0500:55:16.416 : Chapter 0601:12:21.333 : Chapter 0701:25:35.500 : Chapter 0801:38:52.333 : Chapter 09
<a href="tracker.php?rid=39840292" class="postLink"> </a>
<div class="clear" style="height: 8px;"></div>

Трекер:  [ 07-Фев-2017 11:00 ]

  

Скачать .torrent

Размер .torrent файла 12 KB


Размер: 2.39 GB
Хэш (hash) релиза: 99f8ceaf3b3185acc799bb3fd2d04d72cceb85b1

Еще никто не оставлял запись к записи скачать торрент [VIDEO] 28 панфиловцев . Будь первым!

!Обратная связь