Télécharger | Brian Presley | Torrent Search

Скачать через торрент [VIDEO] Вий бесплатно русская версия torrent активатор

Статистика раздачи
Размер:  1.01 GB   |    Зарегистрирован:  1 год 5 месяцев   |    .torrent скачан:  47 раз   |   
Раздают:  1  
   
загрузка...
 
Автор Сообщение

Galfimbul

avatar Galfimbul


<span class="post-font-serif1">Вий</span>

<span class="post-font-serif1">Год выпуска: 1967
Страна: СССР
Жанр: ужасы, фэнтези, драма, страшная сказка, экранизация
Продолжительность: 01:16:51
Перевод: не требуется
Cубтитры: нет</span>
<span class="post-font-serif1">Режиссеры: Константин Ершов, Георгий Кропачев</span>
<span class="post-font-serif1">В ролях: Леонид Куравлев, Наталья Варлей, Алексей Глазырин, Вадим Захарченко, Николай Кутузов, Пётр Вескляров, Дмитрий Капка, Степан Шкурат, Николай Яковченко, Николай Панасьев, Владимир Сальников, Борислав Брондуков и другие .</span>
<span class="post-font-serif1">Описание: Студент-философ Хома Брут должен провести несколько ночей у гроба умершей панночки в старой церквушке в далекой деревне. Сможет ли он побороть свой страх, или ему придется столкнуться с нечистой силой?..</span>
<span class="post-font-serif1">Релиз группы </span>
<span class="post-font-serif1">Качество: BDRip / рип с Blu-ray 1080p
Формат: MP4
Видео кодек: H.264
Аудио кодек: AAC
Видео: 724x536 AR:4/3 1740 kbps 23.976 fps
Аудио: 2ch 48 kHz 128 kbps</span>
avs [info]: 724x536p 1:1 @ 2997/125 fps (cfr)
x264 [info]: using SAR=1/1
x264 [info]: using cpu capabilities: MMX2 SSE2Fast SSSE3 SSE4.2 AVX FMA3 AVX2 LZCNT BMI2
x264 [info]: profile High, level 4.1

x264 [info]: frame I:588 Avg QP:17.71 size: 48517
x264 [info]: frame P:20347 Avg QP:20.58 size: 17548
x264 [info]: frame B:89623 Avg QP:21.60 size: 6886
x264 [info]: consecutive B-frames: 1.1% 1.2% 3.3% 12.2% 16.3% 40.2% 10.2% 6.1% 2.9% 2.8% 1.5% 2.3%
x264 [info]: mb I I16..4: 6.3% 79.9% 13.8%
x264 [info]: mb P I16..4: 0.2% 9.7% 0.7% P16..4: 37.9% 40.6% 10.2% 0.0% 0.0% skip: 0.7%
x264 [info]: mb B I16..4: 0.0% 1.2% 0.1% B16..8: 39.9% 19.6% 2.7% direct: 7.5% skip:29.1% L0:46.6% L1:44.3% BI: 9.2%
x264 [info]: 8x8 transform intra:89.5% inter:67.0%
x264 [info]: direct mvs spatial:98.9% temporal:1.1%
x264 [info]: coded y,uvDC,uvAC intra: 94.4% 80.2% 38.9% inter: 33.2% 32.0% 3.5%
x264 [info]: i16 v,h,dc,p: 12% 19% 21% 49%
x264 [info]: i8 v,h,dc,ddl,ddr,vr,hd,vl,hu: 9% 9% 9% 10% 14% 13% 13% 11% 13%
x264 [info]: i4 v,h,dc,ddl,ddr,vr,hd,vl,hu: 10% 18% 3% 7% 13% 14% 13% 10% 12%
x264 [info]: i8c dc,h,v,p: 36% 30% 20% 14%
x264 [info]: Weighted P-Frames: Y:41.0% UV:27.6%
x264 [info]: ref P L0: 41.1% 12.2% 16.1% 8.3% 6.4% 5.1% 4.4% 2.7% 2.6% 1.2% 0.0%
x264 [info]: ref B L0: 69.5% 12.7% 6.8% 3.9% 2.8% 2.4% 1.4% 0.5%
x264 [info]: ref B L1: 94.0% 6.0%
x264 [info]: kb/s:1739.56

encoded 110558 frames, 13.94 fps, 1739.56 kb/s
GeneralComplete name : D:\Torrents\Вий.1967.BDRip.x264.960x.rip by Frost O.S.mp4Format : MPEG-4Format profile : Base MediaCodec ID : isom (isom/avc1)File size : 1.01 GiBDuration : 1 h 16 minOverall bit rate mode : VariableOverall bit rate : 1 875 kb/sMovie name : Вий 1967 BDRip x264 960x rip by Frost O SGenre : HorrorContentType : Short FilmEncoded date : UTC 2017-02-06 20:41:47Tagged date : UTC 2017-02-06 20:42:52Writing application : MkvToMp4 version: 0.224 (x64)Cover : YesComment : rip by Frost O.S

VideoID : 1Format : AVCFormat/Info : Advanced Video CodecFormat profile : [email protected] settings, CABAC : YesFormat settings, ReFrames : 9 framesCodec ID : avc1Codec ID/Info : Advanced Video CodingDuration : 1 h 16 minBit rate : 1 740 kb/sMaximum bit rate : 6 163 kb/sWidth : 724 pixelsHeight : 536 pixelsDisplay aspect ratio : 4:3Frame rate mode : ConstantFrame rate : 23.976 (24000/1001) FPSOriginal frame rate : 23.976 (23976/1000) FPSColor space : YUVChroma subsampling : 4:2:0Bit depth : 8 bitsScan type : ProgressiveBits/(Pixel*Frame) : 0.187Stream size : 956 MiB (93%)Writing library : x264 core 148 r2705 3f5ed56Encoding settings : cabac=1 / ref=9 / deblock=1:-1:-1 / analyse=0x3:0x113 / me=umh / subme=11 / psy=1 / psy_rd=1.05:0.15 / mixed_ref=1 / me_range=32 / chroma_me=1 / trellis=2 / 8x8dct=1 / cqm=0 / deadzone=21,11 / fast_pskip=0 / chroma_qp_offset=-3 / threads=6 / lookahead_threads=1 / sliced_threads=0 / nr=0 / decimate=0 / interlaced=0 / bluray_compat=0 / constrained_intra=0 / bframes=11 / b_pyramid=2 / b_adapt=2 / b_bias=0 / direct=3 / weightb=1 / open_gop=0 / weightp=2 / keyint=250 / keyint_min=23 / scenecut=40 / intra_refresh=0 / rc=2pass / mbtree=0 / bitrate=1740 / ratetol=1.0 / qcomp=0.65 / qpmin=0 / qpmax=69 / qpstep=4 / cplxblur=20.0 / qblur=0.5 / ip_ratio=1.40 / pb_ratio=1.25 / aq=1:1.00Language : EnglishEncoded date : UTC 2017-02-06 20:41:47Tagged date : UTC 2017-02-06 20:42:11Color range : LimitedColor primaries : BT.709Transfer characteristics : BT.709Matrix coefficients : BT.709

AudioID : 2Format : AACFormat/Info : Advanced Audio CodecFormat profile : LCCodec ID : 40Duration : 1 h 16 minBit rate mode : VariableBit rate : 128 kb/sMaximum bit rate : 130 kb/sChannel(s) : 2 channelsChannel positions : Front: L RSampling rate : 48.0 kHzFrame rate : 46.875 FPS (1024 spf)Compression mode : LossyStream size : 70.4 MiB (7%)Language : RussianDefault : YesAlternate group : 1Encoded date : UTC 2017-02-06 20:42:04Tagged date : UTC 2017-02-06 20:42:11
<div class="clear" style="height: 8px;"></div>

Трекер:  [ 06-Фев-2017 23:00 ]

  

Скачать .torrent

Размер .torrent файла 10 KB


Размер: 1.01 GB
Хэш (hash) релиза: c98285c4a14aa723494e3fa7e30296b4ae3aaa1d

Еще никто не оставлял запись к записи скачать торрент [VIDEO] Вий . Будь первым!

!Обратная связь