Chirac, une vie | Nonfiction | Ho Mann Jahaan (2016) Pakistani Movie TVRip 720p [700MB]

Скачать через торрент [VIDEO] Чужой: Тетралогия Alien: Tetralogy бесплатно русская версия torrent активатор

Статистика раздачи
Размер:  11.23 GB   |    Зарегистрирован:  1 год 5 месяцев   |    .torrent скачан:  60 раз   |   
Раздают:  1  
   
загрузка...
 
Автор Сообщение

Galfimbul

avatar Galfimbul


<span class="post-font-serif1">Чужой: Тетралогия (Режиссёрская версия) /
Alien: Tetralogy (Director’s cut)</span>

<span class="post-font-serif1">Чужой / Alien</span><span class="post-font-serif1">«В космосе твой крик никто не услышит...»</span>

<span class="post-font-serif1">Год выпуска: 1979
Страна: США, Великобритания
Жанр: ужасы, фантастика
Продолжительность: 01:56:15
Перевод №1: русский Профессиональный (полное дублирование) Blu-ray CEE
Перевод №2: русский Профессиональный (многоголосый, закадровый) LDV
Перевод №3: русский Профессиональный (многоголосый, закадровый) Киномания
Перевод №4: русский Профессиональный (многоголосый, закадровый) Позитив-Мультимедиа
Перевод №5: русский Профессиональный (многоголосый, закадровый) Супербит
Перевод №6: русский Профессиональный (многоголосый, закадровый) Первый канал (Со вставками Киномании)
Перевод №7: украинский Профессиональный (многоголосый, закадровый) 1+1
Перевод №8: русский Авторский (одноголосый, закадровый) Дмитрий «Гоблин» Пучков
Перевод №9: русский Авторский (одноголосый, закадровый) А.Гаврилов
Перевод №10: русский Авторский (одноголосый, закадровый) Ю.Живов
Оригинальная дорожка: Есть
Cубтитры: русские, английские (оригинал), Softsub (отключаемые)</span>
<span class="post-font-serif1">Режиссер: Ридли Скотт / Ridley Scott</span>
<span class="post-font-serif1">Сценаристы: Дэн О’Бэннон / Dan O'Bannon, Рональд Шусетт / Ronald Shusett</span>
<span class="post-font-serif1">Оператор: Дерек Ванлинт / Derek Vanlint</span>
<span class="post-font-serif1">Композитор: Джерри Голдсмит / Jerry Goldsmith</span>
<span class="post-font-serif1">В ролях: Сигурни Уивер / Sigourney Weaver (Ellen Ripley), Том Скеррит / Tom Skerritt (Dallas), Иэн Холм / Ian Holm (Ash), Джон Хёрт / John Hurt (Kane), Гарри Дин Стэнтон / Harry Dean Stanton (Brett), Вероника Картрайт / Veronica Cartwright (Lambert), Яфет Котто / Yaphet Kotto (Parker), Боладжи Бадеджо / Bolaji Badejo (Alien), Хелен Хортон / Helen Horton (Mother, озвучка), Эдди Пауэлл / Eddie Powell (Alien, в титрах не указан) .</span>
<span class="post-font-serif1">Бюджет: $11 000 000</span><span class="post-font-serif1">Сборы в США: $80 931 801</span><span class="post-font-serif1">Сборы в мире: + $24 000 000 = $104 931 801</span><span class="post-font-serif1">Зрители: 31.8 млн, 1.96 млн, 1.38 млн</span><span class="post-font-serif1">Премьера (мир): 25 мая 1979</span><span class="post-font-serif1">Релиз на DVD: 30 января 2007, «Двадцатый Век Фокс СНГ»</span><span class="post-font-serif1">Релиз на Blu-Ray: 11 ноября 2010, «Двадцатый Век Фокс СНГ»</span>
<span class="post-font-serif1">Описание: В далеком будущем возвращающийся на Землю грузовой космический корабль перехватывает исходящий с неизвестной планеты неопознанный сигнал. Экипаж принимает решение совершить посадку и разобраться, в чем дело. Оказавшись на планете, астронавты повсюду обнаруживают неопознанные предметы, по виду напоминающие гигантские коконы…</span>
<span class="post-font-serif1">Релиз группы </span>
<span class="post-font-serif1">Качество: BDRip / рип с BDRemux 1080p / звуковые дорожки <a href="viewtopic.php?t=3048866" class="postLink">отсюда</a>
Формат: MP4
Видео кодек: H.264
Аудио кодек: AAC
Видео: 960x408 AR:2.35 1111 kbps 23.976 fps
Аудио №1: [Russian] 2ch 48 kHz 128 kbps - [Dub] Профессиональный (полное дублирование) Blu-ray CEE
Аудио №2: [Russian] 2ch 48 kHz 128 kbps - [MVO] Профессиональный (многоголосый, закадровый) LDV
Аудио №3: [Russian] 2ch 48 kHz 128 kbps - [MVO] Профессиональный (многоголосый, закадровый) Киномания
Аудио №4: [Russian] 2ch 48 kHz 128 kbps - [MVO] Профессиональный (многоголосый, закадровый) Позитив-Мультимедиа
Аудио №5: [Russian] 2ch 48 kHz 128 kbps - [MVO] Профессиональный (многоголосый, закадровый) Супербит
Аудио №6: [Russian] 2ch 48 kHz 128 kbps - [MVO] Профессиональный (многоголосый, закадровый) Первый канал (Со вставками Киномании)
Аудио №7: [Ukrainian] 2ch 48 kHz 128 kbps - [MVO] Профессиональный (многоголосый, закадровый) 1+1
Аудио №8: [Russian] 2ch 48 kHz 128 kbps - [VO] Авторский (одноголосый, закадровый) Дмитрий «Гоблин» Пучков
Аудио №9: [Russian] 2ch 48 kHz 128 kbps - [VO] Авторский (одноголосый, закадровый) А.Гаврилов
Аудио №10: [Russian] 2ch 48 kHz 128 kbps - [VO] Авторский (одноголосый, закадровый) Ю.Живов
Аудио №11: [English] 2ch 48 kHz 128 kbps - Английский</span>
avs [info]: 960x408p 1:1 @ 2997/125 fps (cfr)
x264 [info]: using SAR=1/1
x264 [info]: using cpu capabilities: MMX2 SSE2Fast SSSE3 SSE4.2 AVX FMA3 AVX2 LZCNT BMI2
x264 [info]: profile High, level 4.1

x264 [info]: frame I:1152 Avg QP:17.03 size: 35624
x264 [info]: frame P:33475 Avg QP:18.93 size: 12955
x264 [info]: frame B:132004 Avg QP:22.25 size: 3716
x264 [info]: consecutive B-frames: 2.0% 2.3% 6.2% 16.3% 17.5% 28.5% 9.3% 5.5% 3.8% 3.1% 2.9% 2.5%
x264 [info]: mb I I16..4: 10.4% 67.4% 22.2%
x264 [info]: mb P I16..4: 1.5% 8.0% 1.4% P16..4: 34.4% 35.2% 8.6% 0.0% 0.0% skip:10.9%
x264 [info]: mb B I16..4: 0.2% 0.8% 0.1% B16..8: 35.6% 14.4% 1.7% direct: 3.4% skip:43.9% L0:45.2% L1:47.1% BI: 7.7%
x264 [info]: 8x8 transform intra:71.7% inter:68.3%
x264 [info]: coded y,uvDC,uvAC intra: 73.0% 74.9% 48.6% inter: 14.2% 14.0% 1.6%
x264 [info]: i16 v,h,dc,p: 54% 11% 6% 29%
x264 [info]: i8 v,h,dc,ddl,ddr,vr,hd,vl,hu: 9% 6% 10% 10% 15% 13% 14% 11% 13%
x264 [info]: i4 v,h,dc,ddl,ddr,vr,hd,vl,hu: 11% 9% 9% 9% 14% 12% 13% 10% 13%
x264 [info]: i8c dc,h,v,p: 35% 30% 19% 17%
x264 [info]: Weighted P-Frames: Y:25.7% UV:19.5%
x264 [info]: ref P L0: 46.5% 9.2% 17.1% 7.5% 5.7% 4.5% 3.9% 2.4% 2.3% 0.8% 0.1%
x264 [info]: ref B L0: 71.6% 12.3% 6.4% 3.3% 2.5% 2.1% 1.3% 0.4%
x264 [info]: ref B L1: 93.3% 6.7%
x264 [info]: kb/s:1111.14

encoded 166631 frames, 15.17 fps, 1111.14 kb/s
GeneralComplete name : D:\Torrents\Aliens_Tetralogy.(Director cut).1979-1997.BDRip.x264.960x\Alien.(Director cut).1979.BDRip.x264.960x.rip by Frost O.S.mp4Format : MPEG-4Format profile : Base MediaCodec ID : isom (isom/avc1/iso2)File size : 2.07 GiBDuration : 1 h 56 minOverall bit rate mode : VariableOverall bit rate : 2 554 kb/sMovie name : Alien (Director cut) 1979 BDRip x264 960x rip by Frost O SGenre : ActionContentType : Short FilmEncoded date : UTC 2017-02-06 12:48:44Tagged date : UTC 2017-02-06 13:00:03Writing application : MkvToMp4 version: 0.224 (x64)Cover : YesComment : rip by Frost O.SLongDescription : В далеком будущем возвращающийся на Землю грузовой космический корабль перехватывает исходящий с неизвестной планеты неопознанный сигнал. Экипаж принимает решение совершить посадку и разобраться, в чем дело. Оказавшись на планете, астронавты повсюду обнаруживают неопознанные предметы, по виду напоминающие гигантские коконы…

VideoID : 1Format : AVCFormat/Info : Advanced Video CodecFormat profile : [email protected] settings, CABAC : YesFormat settings, ReFrames : 9 framesCodec ID : avc1Codec ID/Info : Advanced Video CodingDuration : 1 h 55 minBit rate : 1 111 kb/sMaximum bit rate : 9 571 kb/sWidth : 960 pixelsHeight : 408 pixelsDisplay aspect ratio : 2.35:1Frame rate mode : ConstantFrame rate : 23.976 (24000/1001) FPSOriginal frame rate : 23.976 (23976/1000) FPSColor space : YUVChroma subsampling : 4:2:0Bit depth : 8 bitsScan type : ProgressiveBits/(Pixel*Frame) : 0.118Stream size : 921 MiB (43%)Writing library : x264 core 148 r2705 3f5ed56Encoding settings : cabac=1 / ref=9 / deblock=1:-2:-2 / analyse=0x3:0x113 / me=umh / subme=11 / psy=1 / psy_rd=0.90:0.00 / mixed_ref=1 / me_range=32 / chroma_me=1 / trellis=2 / 8x8dct=1 / cqm=0 / deadzone=21,11 / fast_pskip=1 / chroma_qp_offset=-2 / threads=6 / lookahead_threads=1 / sliced_threads=0 / nr=0 / decimate=1 / interlaced=0 / bluray_compat=0 / constrained_intra=0 / bframes=11 / b_pyramid=2 / b_adapt=2 / b_bias=0 / direct=1 / weightb=1 / open_gop=0 / weightp=2 / keyint=250 / keyint_min=23 / scenecut=40 / intra_refresh=0 / rc=crf / mbtree=0 / crf=20.0 / qcomp=0.65 / qpmin=0 / qpmax=69 / qpstep=4 / ip_ratio=1.40 / pb_ratio=1.30 / aq=1:1.00Language : EnglishEncoded date : UTC 2017-02-06 12:48:44Tagged date : UTC 2017-02-06 12:50:28Color range : LimitedColor primaries : BT.709Transfer characteristics : BT.709Matrix coefficients : BT.709

Audio #1ID : 2Format : AACFormat/Info : Advanced Audio CodecFormat profile : LCCodec ID : 40Duration : 1 h 55 minBit rate mode : VariableBit rate : 128 kb/sMaximum bit rate : 135 kb/sChannel(s) : 2 channelsChannel positions : Front: L RSampling rate : 48.0 kHzFrame rate : 46.875 FPS (1024 spf)Compression mode : LossyStream size : 106 MiB (5%)Title : Dub_ Blu_ray CEE / Dub_ Blu_ray CEELanguage : RussianDefault : YesAlternate group : 1Encoded date : UTC 2017-02-06 12:49:03Tagged date : UTC 2017-02-06 12:50:28

Audio #2ID : 3Format : AACFormat/Info : Advanced Audio CodecFormat profile : LCCodec ID : 40Duration : 1 h 55 minBit rate mode : VariableBit rate : 128 kb/sMaximum bit rate : 135 kb/sChannel(s) : 2 channelsChannel positions : Front: L RSampling rate : 48.0 kHzFrame rate : 46.875 FPS (1024 spf)Compression mode : LossyStream size : 106 MiB (5%)Title : MVO_ LDV / MVO_ LDVLanguage : RussianDefault : NoAlternate group : 1Encoded date : UTC 2017-02-06 12:49:13Tagged date : UTC 2017-02-06 12:50:28

Audio #3ID : 4Format : AACFormat/Info : Advanced Audio CodecFormat profile : LCCodec ID : 40Duration : 1 h 55 minBit rate mode : VariableBit rate : 128 kb/sMaximum bit rate : 135 kb/sChannel(s) : 2 channelsChannel positions : Front: L RSampling rate : 48.0 kHzFrame rate : 46.875 FPS (1024 spf)Compression mode : LossyStream size : 106 MiB (5%)Title : MVO_ Kinomaniya / MVO_ KinomaniyaLanguage : RussianDefault : NoAlternate group : 1Encoded date : UTC 2017-02-06 12:49:20Tagged date : UTC 2017-02-06 12:50:28

Audio #4ID : 5Format : AACFormat/Info : Advanced Audio CodecFormat profile : LCCodec ID : 40Duration : 1 h 55 minBit rate mode : VariableBit rate : 128 kb/sMaximum bit rate : 135 kb/sChannel(s) : 2 channelsChannel positions : Front: L RSampling rate : 48.0 kHzFrame rate : 46.875 FPS (1024 spf)Compression mode : LossyStream size : 106 MiB (5%)Title : MVO_ Pozitiv_Multimediya / MVO_ Pozitiv_MultimediyaLanguage : RussianDefault : NoAlternate group : 1Encoded date : UTC 2017-02-06 12:49:27Tagged date : UTC 2017-02-06 12:50:28

Audio #5ID : 6Format : AACFormat/Info : Advanced Audio CodecFormat profile : LCCodec ID : 40Duration : 1 h 55 minBit rate mode : VariableBit rate : 128 kb/sMaximum bit rate : 135 kb/sChannel(s) : 2 channelsChannel positions : Front: L RSampling rate : 48.0 kHzFrame rate : 46.875 FPS (1024 spf)Compression mode : LossyStream size : 106 MiB (5%)Title : MVO_ Superbit / MVO_ SuperbitLanguage : RussianDefault : NoAlternate group : 1Encoded date : UTC 2017-02-06 12:49:34Tagged date : UTC 2017-02-06 12:50:28

Audio #6ID : 7Format : AACFormat/Info : Advanced Audio CodecFormat profile : LCCodec ID : 40Duration : 1 h 55 minBit rate mode : VariableBit rate : 128 kb/sMaximum bit rate : 135 kb/sChannel(s) : 2 channelsChannel positions : Front: L RSampling rate : 48.0 kHzFrame rate : 46.875 FPS (1024 spf)Compression mode : LossyStream size : 106 MiB (5%)Title : MVO_ Pervui kanal _So vstavkami Kinomanii_ / MVO_ Pervui kanal _So vstavkami Kinomanii_Language : RussianDefault : NoAlternate group : 1Encoded date : UTC 2017-02-06 12:49:42Tagged date : UTC 2017-02-06 12:50:28

Audio #7ID : 8Format : AACFormat/Info : Advanced Audio CodecFormat profile : LCCodec ID : 40Duration : 1 h 56 minBit rate mode : VariableBit rate : 128 kb/sMaximum bit rate : 134 kb/sChannel(s) : 2 channelsChannel positions : Front: L RSampling rate : 48.0 kHzFrame rate : 46.875 FPS (1024 spf)Compression mode : LossyStream size : 106 MiB (5%)Title : MVO_ 1_1 / MVO_ 1_1Language : UkrainianDefault : NoAlternate group : 1Encoded date : UTC 2017-02-06 12:49:51Tagged date : UTC 2017-02-06 12:50:28

Audio #8ID : 9Format : AACFormat/Info : Advanced Audio CodecFormat profile : LCCodec ID : 40Duration : 1 h 55 minBit rate mode : VariableBit rate : 128 kb/sMaximum bit rate : 135 kb/sChannel(s) : 2 channelsChannel positions : Front: L RSampling rate : 48.0 kHzFrame rate : 46.875 FPS (1024 spf)Compression mode : LossyStream size : 106 MiB (5%)Title : VO_ Goblin / VO_ GoblinLanguage : RussianDefault : NoAlternate group : 1Encoded date : UTC 2017-02-06 12:49:56Tagged date : UTC 2017-02-06 12:50:28

Audio #9ID : 10Format : AACFormat/Info : Advanced Audio CodecFormat profile : LCCodec ID : 40Duration : 1 h 55 minBit rate mode : VariableBit rate : 128 kb/sMaximum bit rate : 135 kb/sChannel(s) : 2 channelsChannel positions : Front: L RSampling rate : 48.0 kHzFrame rate : 46.875 FPS (1024 spf)Compression mode : LossyStream size : 106 MiB (5%)Title : VO_ Gavrilov / VO_ GavrilovLanguage : RussianDefault : NoAlternate group : 1Encoded date : UTC 2017-02-06 12:50:04Tagged date : UTC 2017-02-06 12:50:28

Audio #10ID : 11Format : AACFormat/Info : Advanced Audio CodecFormat profile : LCCodec ID : 40Duration : 1 h 55 minBit rate mode : VariableBit rate : 128 kb/sMaximum bit rate : 135 kb/sChannel(s) : 2 channelsChannel positions : Front: L RSampling rate : 48.0 kHzFrame rate : 46.875 FPS (1024 spf)Compression mode : LossyStream size : 106 MiB (5%)Title : VO_ Zhuvov / VO_ ZhuvovLanguage : RussianDefault : NoAlternate group : 1Encoded date : UTC 2017-02-06 12:50:12Tagged date : UTC 2017-02-06 12:50:28

Audio #11ID : 12Format : AACFormat/Info : Advanced Audio CodecFormat profile : LCCodec ID : 40Duration : 1 h 55 minBit rate mode : VariableBit rate : 128 kb/sMaximum bit rate : 135 kb/sChannel(s) : 2 channelsChannel positions : Front: L RSampling rate : 48.0 kHzFrame rate : 46.875 FPS (1024 spf)Compression mode : LossyStream size : 106 MiB (5%)Title : Original / OriginalLanguage : EnglishDefault : NoAlternate group : 1Encoded date : UTC 2017-02-06 12:50:19Tagged date : UTC 2017-02-06 12:50:28

Text #1ID : 13Format : Timed TextMuxing mode : sbtlCodec ID : tx3gDuration : 1 h 52 minBit rate mode : VariableBit rate : 73 b/sStream size : 60.5 KiB (0%)Language : RussianDefault : YesForced : NoAlternate group : 2Encoded date : UTC 2017-02-06 12:50:28Tagged date : UTC 2017-02-06 12:50:28

Text #2ID : 14Format : Timed TextMuxing mode : sbtlCodec ID : tx3gDuration : 1 h 55 minBit rate mode : VariableBit rate : 45 b/sStream size : 37.8 KiB (0%)Language : EnglishDefault : NoForced : NoAlternate group : 2Encoded date : UTC 2017-02-06 12:50:28Tagged date : UTC 2017-02-06 12:50:28
<span class="post-font-serif1">Чужие / Aliens</span><span class="post-font-serif1">«В некоторых местах Вселенной вы не одиноки...»</span>

<span class="post-font-serif1">Год выпуска: 1986
Страна: США, Великобритания
Жанр: ужасы, фантастика, боевик, триллер, приключения
Продолжительность: 02:34:28
Перевод №1: русский Профессиональный (полное дублирование) Blu-ray CEE
Перевод №2: русский Профессиональный (многоголосый, закадровый) LDV
Перевод №3: русский Профессиональный (многоголосый, закадровый) Киномания
Перевод №4: русский Профессиональный (многоголосый, закадровый) (20 век фокс = Первый канал)
Перевод №5: русский Профессиональный (многоголосый, закадровый) Позитив-Мультимедиа
Перевод №6: русский Профессиональный (многоголосый, закадровый) Супербит
Перевод №7: украинский Профессиональный (многоголосый, закадровый) 1+1
Перевод №8: русский Авторский (одноголосый, закадровый) Дмитрий «Гоблин» Пучков
Перевод №9: русский Авторский (одноголосый, закадровый) А.Гаврилов
Перевод №10: русский Авторский (одноголосый, закадровый) В.Горчаков
Перевод №11: русский Авторский (одноголосый, закадровый) А.Кашкин
Перевод №12: русский Авторский (одноголосый, закадровый) А.Марченко
Перевод №13: русский Авторский (одноголосый, закадровый) А.Михалёв
Оригинальная дорожка: Есть
Cубтитры: русские, английские (оригинал), Softsub (отключаемые)</span>
<span class="post-font-serif1">Режиссер: Джеймс Кэмерон / James Cameron</span>
<span class="post-font-serif1">Сценаристы: Джеймс Кэмерон / James Cameron, Дэвид Гайлер / David Giler, Уолтер Хилл / Walter Hill, Дэн О’Бэннон / Dan O'Bannon, Рональд Шусетт / Ronald Shusett</span>
<span class="post-font-serif1">Оператор: Эдриан Биддл / Adrian Biddle</span>
<span class="post-font-serif1">Композитор: Джеймс Хорнер / James Horner</span>
<span class="post-font-serif1">В ролях: Сигурни Уивер / Sigourney Weaver (Ellen Ripley), Майкл Бин / Michael Biehn (Cpl. Dwayne Hicks), Кэрри Хенн / Carrie Henn (Rebecca «Newt» Jorden), Пол Райзер / Paul Reiser (Carter Burke), Лэнс Хенриксен / Lance Henriksen (Bishop), Билл Пэкстон / Bill Paxton (Pvt. Hudson), Дженетт Голдстин / Jenette Goldstein (Pvt. Vasquez), Уильям Хоуп / William Hope (Lt. Gorman), Эл Мэтьюз / Al Matthews (Sgt. Apone), Марк Ролстон / Mark Rolston (Pvt. Drake) и другие .</span>
<span class="post-font-serif1">Бюджет: $18 500 000</span><span class="post-font-serif1">Сборы в США: $85 160 248</span><span class="post-font-serif1">Сборы в мире: + $45 900 000 = $131 060 248</span><span class="post-font-serif1">Зрители: 23 млн, 1.72 млн, 1.06 млн</span><span class="post-font-serif1">Премьера (мир): 18 июля 1986</span><span class="post-font-serif1">Релиз на DVD: 30 января 2007, «Двадцатый Век Фокс СНГ»</span><span class="post-font-serif1">Релиз на Blu-Ray: 11 ноября 2010, «Двадцатый Век Фокс СНГ»</span>
<span class="post-font-serif1">Описание: Чужой — совершенный организм. Идеальная машина для убийства, чье физическое превосходство сочетается с его феноменальной жаждой уничтожения. Офицер Элен Рипли и команда космического корабля Ностромо один раз уже встретилась с такой тварью. В живых осталась только Элен.

Капсула с Элен найдена спасателями после многих лет блуждания в космосе. Ей сообщают, что планета L.V. 426 колонизирована, и ей придется вернуться туда, где начался ее кошмар, ибо связь с колонистами прервалась. И вот в составе группы космического десанта Рипли отправляется на проклятую планету. Но теперь их там поджидает не один Чужой, а тысячи. Кто сможет выжить в этой войне: чудовища, способные только убивать, или люди, способные мыслить?</span>
<span class="post-font-serif1">Релиз группы </span>
<span class="post-font-serif1">Качество: BDRip / рип с BDRemux 1080p / звуковые дорожки <a href="viewtopic.php?t=3048866" class="postLink">отсюда</a>
Формат: MP4
Видео кодек: H.264
Аудио кодек: AAC
Видео: 960x518 AR:1.85 1740 kbps 23.976 fps
Аудио №1: [Russian] 2ch 48 kHz 128 kbps - [Dub] Профессиональный (полное дублирование) Blu-ray CEE
Аудио №2: [Russian] 2ch 48 kHz 128 kbps - [MVO] Профессиональный (многоголосый, закадровый) LDV
Аудио №3: [Russian] 2ch 48 kHz 128 kbps - [MVO] Профессиональный (многоголосый, закадровый) Киномания
Аудио №4: [Russian] 2ch 48 kHz 128 kbps - [MVO] Профессиональный (многоголосый, закадровый) (20 век фокс = Первый канал)
Аудио №5: [Russian] 2ch 48 kHz 128 kbps - [MVO] Профессиональный (многоголосый, закадровый) Позитив-Мультимедиа
Аудио №6: [Russian] 2ch 48 kHz 128 kbps - [MVO] Профессиональный (многоголосый, закадровый) Супербит
Аудио №7: [Ukrainian] 2ch 48 kHz 128 kbps - [MVO] Профессиональный (многоголосый, закадровый) 1+1
Аудио №8: [Russian] 2ch 48 kHz 128 kbps - [VO] Авторский (одноголосый, закадровый) Дмитрий «Гоблин» Пучков
Аудио №9: [Russian] 2ch 48 kHz 128 kbps - [VO] Авторский (одноголосый, закадровый) А.Гаврилов
Аудио №10: [Russian] 2ch 48 kHz 128 kbps - [VO] Авторский (одноголосый, закадровый) В.Горчаков
Аудио №11: [Russian] 2ch 48 kHz 128 kbps - [VO] Авторский (одноголосый, закадровый) А.Кашкин
Аудио №12: [Russian] 2ch 48 kHz 128 kbps - [VO] Авторский (одноголосый, закадровый) А.Марченко
Аудио №13: [Russian] 2ch 48 kHz 128 kbps - [VO] Авторский (одноголосый, закадровый) А.Михалёв
Аудио №14: [English] 2ch 48 kHz 128 kbps - Английский</span>
avs [info]: 960x518p 1:1 @ 2997/125 fps (cfr)
x264 [info]: using SAR=1/1
x264 [info]: using cpu capabilities: MMX2 SSE2Fast SSSE3 SSE4.2 AVX FMA3 AVX2 LZCNT BMI2
x264 [info]: profile High, level 4.1

x264 [info]: frame I:1421 Avg QP:20.23 size: 54333
x264 [info]: frame P:54112 Avg QP:23.78 size: 17091
x264 [info]: frame B:166652 Avg QP:25.08 size: 6077
x264 [info]: consecutive B-frames: 3.9% 4.3% 10.2% 19.9% 18.8% 33.0% 5.8% 1.5% 1.5% 1.1%
x264 [info]: mb I I16..4: 5.2% 83.0% 11.8%
x264 [info]: mb P I16..4: 1.2% 8.4% 1.1% P16..4: 39.3% 38.5% 8.5% 0.0% 0.0% skip: 3.0%
x264 [info]: mb B I16..4: 0.1% 0.7% 0.1% B16..8: 43.1% 18.8% 2.3% direct: 4.4% skip:30.5% L0:48.1% L1:47.6% BI: 4.3%
x264 [info]: 8x8 transform intra:79.2% inter:67.0%
x264 [info]: direct mvs spatial:98.7% temporal:1.3%
x264 [info]: coded y,uvDC,uvAC intra: 84.0% 74.3% 38.3% inter: 23.8% 23.3% 4.7%
x264 [info]: i16 v,h,dc,p: 23% 18% 4% 55%
x264 [info]: i8 v,h,dc,ddl,ddr,vr,hd,vl,hu: 7% 4% 3% 13% 19% 16% 16% 11% 11%
x264 [info]: i4 v,h,dc,ddl,ddr,vr,hd,vl,hu: 9% 4% 4% 11% 18% 16% 15% 12% 12%
x264 [info]: i8c dc,h,v,p: 34% 25% 20% 20%
x264 [info]: Weighted P-Frames: Y:30.5% UV:23.2%
x264 [info]: ref P L0: 43.1% 9.1% 17.6% 7.3% 5.9% 4.3% 3.9% 2.1% 2.1% 1.8% 1.9% 0.7% 0.1%
x264 [info]: ref B L0: 68.6% 12.7% 6.9% 3.5% 2.5% 2.1% 1.7% 1.0% 0.7% 0.3%
x264 [info]: ref B L1: 94.1% 5.9%
x264 [info]: kb/s:1739.29

encoded 222185 frames, 10.07 fps, 1739.29 kb/s
GeneralComplete name : D:\Torrents\Aliens_Tetralogy.(Director cut).1979-1997.BDRip.x264.960x\Aliens.(Director cut).1986.BDRip.x264.960x.rip by Frost O.S.mp4Format : MPEG-4Format profile : Base MediaCodec ID : isom (isom/avc1/iso2)File size : 3.87 GiBDuration : 2 h 34 minOverall bit rate mode : VariableOverall bit rate : 3 585 kb/sMovie name : Aliens (Director cut) 1986 BDRip x264 960x rip by Frost O SGenre : ActionContentType : Short FilmEncoded date : UTC 2017-02-06 15:24:44Tagged date : UTC 2017-02-06 15:56:50Writing application : MkvToMp4 version: 0.224 (x64)Cover : YesComment : rip by Frost O.SLongDescription : Чужой — совершенный организм. Идеальная машина для убийства, чье физическое превосходство сочетается с его феноменальной жаждой уничтожения. Офицер Элен Рипли и команда космического корабля Ностромо один раз уже встретилась с такой тварью. В живых осталась только Элен. Капсула с Элен найдена спасателями после многих лет блуждания в космосе. Ей сообщают, что планета L.V. 426 колонизирована, и ей придется вернуться туда, где начался ее кошмар, ибо связь с колонистами прервалась. И вот в составе группы космического десанта Рипли отправляется на проклятую планету. Но теперь их там поджидает не один Чужой, а тысячи. Кто сможет выжить в этой войне: чудовища, способные только убивать, или люди, способные мыслить?

VideoID : 1Format : AVCFormat/Info : Advanced Video CodecFormat profile : [email protected] settings, CABAC : YesFormat settings, ReFrames : 11 framesCodec ID : avc1Codec ID/Info : Advanced Video CodingDuration : 2 h 34 minBit rate : 1 740 kb/sMaximum bit rate : 27.7 Mb/sWidth : 960 pixelsHeight : 518 pixelsDisplay aspect ratio : 1.85:1Frame rate mode : ConstantFrame rate : 23.976 (24000/1001) FPSOriginal frame rate : 23.976 (23976/1000) FPSColor space : YUVChroma subsampling : 4:2:0Bit depth : 8 bitsScan type : ProgressiveBits/(Pixel*Frame) : 0.146Stream size : 1.88 GiB (49%)Writing library : x264 core 148 r2705 3f5ed56Encoding settings : cabac=1 / ref=11 / deblock=1:-2:-2 / analyse=0x3:0x113 / me=umh / subme=11 / psy=1 / psy_rd=0.95:0.00 / mixed_ref=1 / me_range=32 / chroma_me=1 / trellis=2 / 8x8dct=1 / cqm=0 / deadzone=21,11 / fast_pskip=0 / chroma_qp_offset=-2 / threads=6 / lookahead_threads=1 / sliced_threads=0 / nr=0 / decimate=0 / interlaced=0 / bluray_compat=0 / constrained_intra=0 / bframes=9 / b_pyramid=2 / b_adapt=2 / b_bias=0 / direct=3 / weightb=1 / open_gop=0 / weightp=2 / keyint=250 / keyint_min=23 / scenecut=40 / intra_refresh=0 / rc=2pass / mbtree=0 / bitrate=1740 / ratetol=1.0 / qcomp=0.60 / qpmin=0 / qpmax=69 / qpstep=4 / cplxblur=20.0 / qblur=0.5 / ip_ratio=1.40 / pb_ratio=1.25 / aq=1:1.00Language : EnglishEncoded date : UTC 2017-02-06 15:24:44Tagged date : UTC 2017-02-06 15:27:56Color range : LimitedColor primaries : BT.709Transfer characteristics : BT.709Matrix coefficients : BT.709

Audio #1ID : 2Format : AACFormat/Info : Advanced Audio CodecFormat profile : LCCodec ID : 40Duration : 2 h 34 minBit rate mode : VariableBit rate : 128 kb/sMaximum bit rate : 135 kb/sChannel(s) : 2 channelsChannel positions : Front: L RSampling rate : 48.0 kHzFrame rate : 46.875 FPS (1024 spf)Compression mode : LossyStream size : 141 MiB (4%)Title : Dub_ Blu_ray CEE / Dub_ Blu_ray CEELanguage : RussianDefault : YesAlternate group : 1Encoded date : UTC 2017-02-06 15:25:45Tagged date : UTC 2017-02-06 15:27:56

Audio #2ID : 3Format : AACFormat/Info : Advanced Audio CodecFormat profile : LCCodec ID : 40Duration : 2 h 34 minBit rate mode : VariableBit rate : 128 kb/sMaximum bit rate : 135 kb/sChannel(s) : 2 channelsChannel positions : Front: L RSampling rate : 48.0 kHzFrame rate : 46.875 FPS (1024 spf)Compression mode : LossyStream size : 141 MiB (4%)Title : MVO_ LDV / MVO_ LDVLanguage : RussianDefault : NoAlternate group : 1Encoded date : UTC 2017-02-06 15:25:55Tagged date : UTC 2017-02-06 15:27:56

Audio #3ID : 4Format : AACFormat/Info : Advanced Audio CodecFormat profile : LCCodec ID : 40Duration : 2 h 34 minBit rate mode : VariableBit rate : 128 kb/sMaximum bit rate : 135 kb/sChannel(s) : 2 channelsChannel positions : Front: L RSampling rate : 48.0 kHzFrame rate : 46.875 FPS (1024 spf)Compression mode : LossyStream size : 141 MiB (4%)Title : MVO_ Kinomaniya / MVO_ KinomaniyaLanguage : RussianDefault : NoAlternate group : 1Encoded date : UTC 2017-02-06 15:26:03Tagged date : UTC 2017-02-06 15:27:56

Audio #4ID : 5Format : AACFormat/Info : Advanced Audio CodecFormat profile : LCCodec ID : 40Duration : 2 h 34 minBit rate mode : VariableBit rate : 128 kb/sMaximum bit rate : 132 kb/sChannel(s) : 2 channelsChannel positions : Front: L RSampling rate : 48.0 kHzFrame rate : 46.875 FPS (1024 spf)Compression mode : LossyStream size : 141 MiB (4%)Title : MVO_ _20 vek foks = Pervui kanal_ / MVO_ _20 vek foks = Pervui kanal_Language : RussianDefault : NoAlternate group : 1Encoded date : UTC 2017-02-06 15:26:12Tagged date : UTC 2017-02-06 15:27:56

Audio #5ID : 6Format : AACFormat/Info : Advanced Audio CodecFormat profile : LCCodec ID : 40Duration : 2 h 34 minBit rate mode : VariableBit rate : 128 kb/sMaximum bit rate : 135 kb/sChannel(s) : 2 channelsChannel positions : Front: L RSampling rate : 48.0 kHzFrame rate : 46.875 FPS (1024 spf)Compression mode : LossyStream size : 141 MiB (4%)Title : MVO_ Pozitiv_Multimediya / MVO_ Pozitiv_MultimediyaLanguage : RussianDefault : NoAlternate group : 1Encoded date : UTC 2017-02-06 15:26:22Tagged date : UTC 2017-02-06 15:27:56

Audio #6ID : 7Format : AACFormat/Info : Advanced Audio CodecFormat profile : LCCodec ID : 40Duration : 2 h 34 minBit rate mode : VariableBit rate : 128 kb/sMaximum bit rate : 135 kb/sChannel(s) : 2 channelsChannel positions : Front: L RSampling rate : 48.0 kHzFrame rate : 46.875 FPS (1024 spf)Compression mode : LossyStream size : 141 MiB (4%)Title : MVO_ Superbit / MVO_ SuperbitLanguage : RussianDefault : NoAlternate group : 1Encoded date : UTC 2017-02-06 15:26:30Tagged date : UTC 2017-02-06 15:27:56

Audio #7ID : 8Format : AACFormat/Info : Advanced Audio CodecFormat profile : LCCodec ID : 40Duration : 2 h 34 minBit rate mode : VariableBit rate : 128 kb/sMaximum bit rate : 133 kb/sChannel(s) : 2 channelsChannel positions : Front: L RSampling rate : 48.0 kHzFrame rate : 46.875 FPS (1024 spf)Compression mode : LossyStream size : 141 MiB (4%)Title : MVO_ 1_1 / MVO_ 1_1Language : UkrainianDefault : NoAlternate group : 1Encoded date : UTC 2017-02-06 15:26:40Tagged date : UTC 2017-02-06 15:27:56

Audio #8ID : 9Format : AACFormat/Info : Advanced Audio CodecFormat profile : LCCodec ID : 40Duration : 2 h 34 minBit rate mode : VariableBit rate : 128 kb/sMaximum bit rate : 135 kb/sChannel(s) : 2 channelsChannel positions : Front: L RSampling rate : 48.0 kHzFrame rate : 46.875 FPS (1024 spf)Compression mode : LossyStream size : 141 MiB (4%)Title : VO_ Goblin / VO_ GoblinLanguage : RussianDefault : NoAlternate group : 1Encoded date : UTC 2017-02-06 15:26:48Tagged date : UTC 2017-02-06 15:27:56

Audio #9ID : 10Format : AACFormat/Info : Advanced Audio CodecFormat profile : LCCodec ID : 40Duration : 2 h 34 minBit rate mode : VariableBit rate : 128 kb/sMaximum bit rate : 135 kb/sChannel(s) : 2 channelsChannel positions : Front: L RSampling rate : 48.0 kHzFrame rate : 46.875 FPS (1024 spf)Compression mode : LossyStream size : 141 MiB (4%)Title : VO_ Gavrilov / VO_ GavrilovLanguage : RussianDefault : NoAlternate group : 1Encoded date : UTC 2017-02-06 15:26:59Tagged date : UTC 2017-02-06 15:27:56

Audio #10ID : 11Format : AACFormat/Info : Advanced Audio CodecFormat profile : LCCodec ID : 40Duration : 2 h 34 minBit rate mode : VariableBit rate : 128 kb/sMaximum bit rate : 135 kb/sChannel(s) : 2 channelsChannel positions : Front: L RSampling rate : 48.0 kHzFrame rate : 46.875 FPS (1024 spf)Compression mode : LossyStream size : 141 MiB (4%)Title : VO_ Gorchakov / VO_ GorchakovLanguage : RussianDefault : NoAlternate group : 1Encoded date : UTC 2017-02-06 15:27:08Tagged date : UTC 2017-02-06 15:27:56

Audio #11ID : 12Format : AACFormat/Info : Advanced Audio CodecFormat profile : LCCodec ID : 40Duration : 2 h 34 minBit rate mode : VariableBit rate : 128 kb/sMaximum bit rate : 135 kb/sChannel(s) : 2 channelsChannel positions : Front: L RSampling rate : 48.0 kHzFrame rate : 46.875 FPS (1024 spf)Compression mode : LossyStream size : 141 MiB (4%)Title : VO_ Kashkin / VO_ KashkinLanguage : RussianDefault : NoAlternate group : 1Encoded date : UTC 2017-02-06 15:27:17Tagged date : UTC 2017-02-06 15:27:56

Audio #12ID : 13Format : AACFormat/Info : Advanced Audio CodecFormat profile : LCCodec ID : 40Duration : 2 h 34 minBit rate mode : VariableBit rate : 128 kb/sMaximum bit rate : 134 kb/sChannel(s) : 2 channelsChannel positions : Front: L RSampling rate : 48.0 kHzFrame rate : 46.875 FPS (1024 spf)Compression mode : LossyStream size : 141 MiB (4%)Title : VO_ Marchenko / VO_ MarchenkoLanguage : RussianDefault : NoAlternate group : 1Encoded date : UTC 2017-02-06 15:27:26Tagged date : UTC 2017-02-06 15:27:56

Audio #13ID : 14Format : AACFormat/Info : Advanced Audio CodecFormat profile : LCCodec ID : 40Duration : 2 h 34 minBit rate mode : VariableBit rate : 128 kb/sMaximum bit rate : 135 kb/sChannel(s) : 2 channelsChannel positions : Front: L RSampling rate : 48.0 kHzFrame rate : 46.875 FPS (1024 spf)Compression mode : LossyStream size : 141 MiB (4%)Title : VO_ Mikhalev / VO_ MikhalevLanguage : RussianDefault : NoAlternate group : 1Encoded date : UTC 2017-02-06 15:27:35Tagged date : UTC 2017-02-06 15:27:56

Audio #14ID : 15Format : AACFormat/Info : Advanced Audio CodecFormat profile : LCCodec ID : 40Duration : 2 h 34 minBit rate mode : VariableBit rate : 128 kb/sMaximum bit rate : 135 kb/sChannel(s) : 2 channelsChannel positions : Front: L RSampling rate : 48.0 kHzFrame rate : 46.875 FPS (1024 spf)Compression mode : LossyStream size : 141 MiB (4%)Title : Original / OriginalLanguage : EnglishDefault : NoAlternate group : 1Encoded date : UTC 2017-02-06 15:27:46Tagged date : UTC 2017-02-06 15:27:56

Text #1ID : 16Format : Timed TextMuxing mode : sbtlCodec ID : tx3gDuration : 2 h 32 minBit rate mode : VariableBit rate : 69 b/sStream size : 77.0 KiB (0%)Language : RussianDefault : YesForced : NoAlternate group : 2Encoded date : UTC 2017-02-06 15:27:56Tagged date : UTC 2017-02-06 15:27:56

Text #2ID : 17Format : Timed TextMuxing mode : sbtlCodec ID : tx3gDuration : 2 h 34 minBit rate mode : VariableBit rate : 76 b/sStream size : 85.6 KiB (0%)Language : RussianDefault : NoForced : NoAlternate group : 2Encoded date : UTC 2017-02-06 15:27:56Tagged date : UTC 2017-02-06 15:27:56

Text #3ID : 18Format : Timed TextMuxing mode : sbtlCodec ID : tx3gDuration : 2 h 31 minBit rate mode : VariableBit rate : 85 b/sStream size : 94.5 KiB (0%)Language : RussianDefault : NoForced : NoAlternate group : 2Encoded date : UTC 2017-02-06 15:27:56Tagged date : UTC 2017-02-06 15:27:56

Text #4ID : 19Format : Timed TextMuxing mode : sbtlCodec ID : tx3gDuration : 2 h 34 minBit rate mode : VariableBit rate : 53 b/sStream size : 60.2 KiB (0%)Language : EnglishDefault : NoForced : NoAlternate group : 2Encoded date : UTC 2017-02-06 15:27:56Tagged date : UTC 2017-02-06 15:27:56
<span class="post-font-serif1">Чужой 3 / Alien³</span><span class="post-font-serif1">«Снова началось...»</span>

<span class="post-font-serif1">Год выпуска: 1992
Страна: США
Жанр: ужасы, фантастика, боевик, триллер
Продолжительность: 02:24:53
Перевод №1: русский Профессиональный (полное дублирование) Blu-ray CEE
Перевод №2: русский Профессиональный (многоголосый, закадровый) LDV
Перевод №3: русский Профессиональный (многоголосый, закадровый) Киномания
Перевод №4: русский Профессиональный (многоголосый, закадровый) Позитив-Мультимедиа
Перевод №5: русский Профессиональный (многоголосый, закадровый) Супербит
Перевод №6: украинский Профессиональный (многоголосый, закадровый) 1+1
Перевод №7: русский Авторский (одноголосый, закадровый) Дмитрий «Гоблин» Пучков
Перевод №8: русский Авторский (одноголосый, закадровый) А.Гаврилов
Перевод №9: русский Авторский (одноголосый, закадровый) Ю.Живов
Оригинальная дорожка: Есть
Cубтитры: русские, английские (оригинал), Softsub (отключаемые)</span>
<span class="post-font-serif1">Режиссер: Дэвид Финчер / David Fincher</span>
<span class="post-font-serif1">Сценаристы: Дэвид Гайлер / David Giler, Уолтер Хилл / Walter Hill, Ларри Фергусон / Larry Ferguson, Дэн О’Бэннон / Dan O'Bannon, Рональд Шусетт / Ronald Shusett, Винсент Уорд / Vincent Ward</span>
<span class="post-font-serif1">Оператор: Алекс Томсон / Alex Thomson</span>
<span class="post-font-serif1">Композитор: Эллиот Голденталь / Elliot Goldenthal</span>
<span class="post-font-serif1">В ролях: Сигурни Уивер / Sigourney Weaver (Ellen Ripley), Чарльз С. Даттон / Charles S. Dutton (Dillon), Чарльз Дэнс / Charles Dance (Clemens), Пол МакГанн / Paul McGann (Golic), Брайан Гловер / Brian Glover (Andrews), Ральф Браун / Ralph Brown (Aaron), Дэниэл Уэбб / Danny Webb (Morse), Кристофер Джон Филдс / Christopher John Fields (Rains), Холт МакКэллани / Holt McCallany (Junior), Лэнс Хенриксен / Lance Henriksen (Bishop II) и другие .</span>
<span class="post-font-serif1">Бюджет: $50 000 000</span><span class="post-font-serif1">Сборы в США: $ 55 473 545</span><span class="post-font-serif1">Сборы в мире: + $ 104 340 953 = $159 814 498</span><span class="post-font-serif1">Зрители: 13.4 млн, 1.65 млн, 1.33 млн</span><span class="post-font-serif1">Премьера (мир): 22 мая 1992</span><span class="post-font-serif1">Релиз на DVD: 30 января 2007, «Двадцатый Век Фокс СНГ»</span>
<span class="post-font-serif1">Описание: После бегства с планеты «Чужих» космический корабль Рипли терпит катастрофу вблизи так называемой планеты — тюрьмы, места, где отсиживают свой срок убийцы, насильники и прочие отбросы общества. Вместе с Рипли на эту планету попадает зародыш чужого, который и был причиной гибели корабля. Довольно быстро он превращается в гигантскую, зубастую тварь и начинает свое темное дело.

Его жертвами становятся десятки безоружных заключенных. Кровь брызжет фонтаном, куски человеческого мяса разлетаются во все стороны. И кажется, что остановить эту машину смерти не сможет никто, никто кроме отважной, но увы не бессмертной девушки по имени Рипли.</span>
<span class="post-font-serif1">Релиз группы </span>
<span class="post-font-serif1">Качество: BDRip / рип с BDRemux 1080p / звуковые дорожки <a href="viewtopic.php?t=3048866" class="postLink">отсюда</a>
Формат: MP4
Видео кодек: H.264
Аудио кодек: AAC
Видео: 960x406 AR:2.35 1484 kbps 23.976 fps
Аудио №1: [Russian] 2ch 48 kHz 128 kbps - [Dub] Профессиональный (полное дублирование) Blu-ray CEE
Аудио №2: [Russian] 2ch 48 kHz 128 kbps - [MVO] Профессиональный (многоголосый, закадровый) LDV
Аудио №3: [Russian] 2ch 48 kHz 128 kbps - [MVO] Профессиональный (многоголосый, закадровый) Киномания
Аудио №4: [Russian] 2ch 48 kHz 128 kbps - [MVO] Профессиональный (многоголосый, закадровый) Позитив-Мультимедиа
Аудио №5: [Russian] 2ch 48 kHz 128 kbps - [MVO] Профессиональный (многоголосый, закадровый) Супербит
Аудио №6: [Ukrainian] 2ch 48 kHz 128 kbps - [MVO] Профессиональный (многоголосый, закадровый) 1+1
Аудио №7: [Russian] 2ch 48 kHz 128 kbps - [VO] Авторский (одноголосый, закадровый) Дмитрий «Гоблин» Пучков
Аудио №8: [Russian] 2ch 48 kHz 128 kbps - [VO] Авторский (одноголосый, закадровый) А.Гаврилов
Аудио №9: [Russian] 2ch 48 kHz 128 kbps - [VO] Авторский (одноголосый, закадровый) Ю.Живов
Аудио №10: [English] 2ch 48 kHz 128 kbps - Английский</span>
avs [info]: 960x406p 1:1 @ 2997/125 fps (cfr)
x264 [info]: using SAR=1/1
x264 [info]: using cpu capabilities: MMX2 SSE2Fast SSSE3 SSE4.2 AVX FMA3 AVX2 LZCNT BMI2
x264 [info]: profile High, level 4.1

x264 [info]: frame I:1726 Avg QP:16.32 size: 41845
x264 [info]: frame P:42305 Avg QP:17.44 size: 16056
x264 [info]: frame B:164384 Avg QP:19.94 size: 5240
x264 [info]: consecutive B-frames: 1.9% 1.9% 5.0% 19.2% 15.4% 39.9% 5.9% 7.0% 2.0% 1.8%
x264 [info]: mb I I16..4: 4.3% 83.6% 12.1%
x264 [info]: mb P I16..4: 0.9% 12.1% 1.2% P16..4: 31.9% 37.6% 11.1% 0.0% 0.0% skip: 5.2%
x264 [info]: mb B I16..4: 0.1% 0.8% 0.1% B16..8: 37.5% 19.6% 2.5% direct: 4.6% skip:34.9% L0:46.9% L1:45.1% BI: 8.0%
x264 [info]: 8x8 transform intra:84.3% inter:65.4%
x264 [info]: coded y,uvDC,uvAC intra: 86.9% 82.3% 55.7% inter: 22.9% 20.1% 2.0%
x264 [info]: i16 v,h,dc,p: 32% 10% 7% 51%
x264 [info]: i8 v,h,dc,ddl,ddr,vr,hd,vl,hu: 10% 6% 8% 10% 14% 13% 13% 11% 13%
x264 [info]: i4 v,h,dc,ddl,ddr,vr,hd,vl,hu: 15% 6% 10% 9% 14% 13% 12% 10% 12%
x264 [info]: i8c dc,h,v,p: 38% 26% 19% 16%
x264 [info]: Weighted P-Frames: Y:22.5% UV:17.2%
x264 [info]: ref P L0: 42.1% 9.0% 19.4% 8.1% 6.7% 4.7% 4.4% 2.5% 2.5% 0.5% 0.0%
x264 [info]: ref B L0: 67.0% 13.6% 7.7% 4.2% 3.0% 2.5% 1.5% 0.5%
x264 [info]: ref B L1: 93.0% 7.0%
x264 [info]: kb/s:1484.29

encoded 208415 frames, 13.95 fps, 1484.29 kb/s
GeneralComplete name : D:\Torrents\Aliens_Tetralogy.(Director cut).1979-1997.BDRip.x264.960x\Alien 3.(Director cut).1992.BDRip.x264.960x.rip by Frost O.S.mp4Format : MPEG-4Format profile : Base MediaCodec ID : isom (isom/avc1/iso2)File size : 2.84 GiBDuration : 2 h 24 minOverall bit rate mode : VariableOverall bit rate : 2 804 kb/sMovie name : Alien 3 (Director cut) 1992 BDRip x264 960x rip by Frost O SGenre : ActionContentType : Short FilmEncoded date : UTC 2017-02-06 14:23:55Tagged date : UTC 2017-02-06 14:32:30Writing application : MkvToMp4 version: 0.224 (x64)Cover : YesComment : rip by Frost O.SLongDescription : После бегства с планеты «Чужих» космический корабль Рипли терпит катастрофу вблизи так называемой планеты — тюрьмы, места, где отсиживают свой срок убийцы, насильники и прочие отбросы общества. Вместе с Рипли на эту планету попадает зародыш чужого, который и был причиной гибели корабля. Довольно быстро он превращается в гигантскую, зубастую тварь и начинает свое темное дело. Его жертвами становятся десятки безоружных заключенных. Кровь брызжет фонтаном, куски человеческого мяса разлетаются во все стороны. И кажется, что остановить эту машину смерти не сможет никто, никто кроме отважной, но увы не бессмертной девушки по имени Рипли.

VideoID : 1Format : AVCFormat/Info : Advanced Video CodecFormat profile : [email protected] settings, CABAC : YesFormat settings, ReFrames : 9 framesCodec ID : avc1Codec ID/Info : Advanced Video CodingDuration : 2 h 24 minBit rate : 1 484 kb/sMaximum bit rate : 6 223 kb/sWidth : 960 pixelsHeight : 406 pixelsDisplay aspect ratio : 2.35:1Frame rate mode : ConstantFrame rate : 23.976 (24000/1001) FPSOriginal frame rate : 23.976 (23976/1000) FPSColor space : YUVChroma subsampling : 4:2:0Bit depth : 8 bitsScan type : ProgressiveBits/(Pixel*Frame) : 0.159Stream size : 1.50 GiB (53%)Writing library : x264 core 148 r2705 3f5ed56Encoding settings : cabac=1 / ref=9 / deblock=1:-2:-2 / analyse=0x3:0x113 / me=umh / subme=11 / psy=1 / psy_rd=0.90:0.00 / mixed_ref=1 / me_range=32 / chroma_me=1 / trellis=2 / 8x8dct=1 / cqm=0 / deadzone=21,11 / fast_pskip=1 / chroma_qp_offset=-2 / threads=6 / lookahead_threads=1 / sliced_threads=0 / nr=0 / decimate=1 / interlaced=0 / bluray_compat=0 / constrained_intra=0 / bframes=9 / b_pyramid=2 / b_adapt=2 / b_bias=0 / direct=1 / weightb=1 / open_gop=0 / weightp=2 / keyint=250 / keyint_min=23 / scenecut=40 / intra_refresh=0 / rc=crf / mbtree=0 / crf=19.2 / qcomp=0.65 / qpmin=0 / qpmax=69 / qpstep=4 / ip_ratio=1.40 / pb_ratio=1.30 / aq=1:1.00Language : EnglishEncoded date : UTC 2017-02-06 14:23:55Tagged date : UTC 2017-02-06 14:26:11Color range : LimitedColor primaries : BT.709Transfer characteristics : BT.709Matrix coefficients : BT.709

Audio #1ID : 2Format : AACFormat/Info : Advanced Audio CodecFormat profile : LCCodec ID : 40Duration : 2 h 24 minBit rate mode : VariableBit rate : 128 kb/sMaximum bit rate : 135 kb/sChannel(s) : 2 channelsChannel positions : Front: L RSampling rate : 48.0 kHzFrame rate : 46.875 FPS (1024 spf)Compression mode : LossyStream size : 133 MiB (5%)Title : Dub_ Blu_ray CEE / Dub_ Blu_ray CEELanguage : RussianDefault : YesAlternate group : 1Encoded date : UTC 2017-02-06 14:24:43Tagged date : UTC 2017-02-06 14:26:11

Audio #2ID : 3Format : AACFormat/Info : Advanced Audio CodecFormat profile : LCCodec ID : 40Duration : 2 h 24 minBit rate mode : VariableBit rate : 128 kb/sMaximum bit rate : 135 kb/sChannel(s) : 2 channelsChannel positions : Front: L RSampling rate : 48.0 kHzFrame rate : 46.875 FPS (1024 spf)Compression mode : LossyStream size : 133 MiB (5%)Title : MVO_ LDV / MVO_ LDVLanguage : RussianDefault : NoAlternate group : 1Encoded date : UTC 2017-02-06 14:24:52Tagged date : UTC 2017-02-06 14:26:11

Audio #3ID : 4Format : AACFormat/Info : Advanced Audio CodecFormat profile : LCCodec ID : 40Duration : 2 h 24 minBit rate mode : VariableBit rate : 128 kb/sMaximum bit rate : 135 kb/sChannel(s) : 2 channelsChannel positions : Front: L RSampling rate : 48.0 kHzFrame rate : 46.875 FPS (1024 spf)Compression mode : LossyStream size : 133 MiB (5%)Title : MVO_ Kinomaniya / MVO_ KinomaniyaLanguage : RussianDefault : NoAlternate group : 1Encoded date : UTC 2017-02-06 14:25:00Tagged date : UTC 2017-02-06 14:26:11

Audio #4ID : 5Format : AACFormat/Info : Advanced Audio CodecFormat profile : LCCodec ID : 40Duration : 2 h 24 minBit rate mode : VariableBit rate : 128 kb/sMaximum bit rate : 135 kb/sChannel(s) : 2 channelsChannel positions : Front: L RSampling rate : 48.0 kHzFrame rate : 46.875 FPS (1024 spf)Compression mode : LossyStream size : 133 MiB (5%)Title : MVO_ Pozitiv_Multimediya / MVO_ Pozitiv_MultimediyaLanguage : RussianDefault : NoAlternate group : 1Encoded date : UTC 2017-02-06 14:25:08Tagged date : UTC 2017-02-06 14:26:11

Audio #5ID : 6Format : AACFormat/Info : Advanced Audio CodecFormat profile : LCCodec ID : 40Duration : 2 h 24 minBit rate mode : VariableBit rate : 128 kb/sMaximum bit rate : 135 kb/sChannel(s) : 2 channelsChannel positions : Front: L RSampling rate : 48.0 kHzFrame rate : 46.875 FPS (1024 spf)Compression mode : LossyStream size : 133 MiB (5%)Title : MVO_ Superbit / MVO_ SuperbitLanguage : RussianDefault : NoAlternate group : 1Encoded date : UTC 2017-02-06 14:25:16Tagged date : UTC 2017-02-06 14:26:11

Audio #6ID : 7Format : AACFormat/Info : Advanced Audio CodecFormat profile : LCCodec ID : 40Duration : 2 h 24 minBit rate mode : VariableBit rate : 128 kb/sMaximum bit rate : 135 kb/sChannel(s) : 2 channelsChannel positions : Front: L RSampling rate : 48.0 kHzFrame rate : 46.875 FPS (1024 spf)Compression mode : LossyStream size : 133 MiB (5%)Title : MVO_ 1_1 / MVO_ 1_1Language : UkrainianDefault : NoAlternate group : 1Encoded date : UTC 2017-02-06 14:25:26Tagged date : UTC 2017-02-06 14:26:11

Audio #7ID : 8Format : AACFormat/Info : Advanced Audio CodecFormat profile : LCCodec ID : 40Duration : 2 h 24 minBit rate mode : VariableBit rate : 128 kb/sMaximum bit rate : 135 kb/sChannel(s) : 2 channelsChannel positions : Front: L RSampling rate : 48.0 kHzFrame rate : 46.875 FPS (1024 spf)Compression mode : LossyStream size : 133 MiB (5%)Title : VO_ Goblin / VO_ GoblinLanguage : RussianDefault : NoAlternate group : 1Encoded date : UTC 2017-02-06 14:25:34Tagged date : UTC 2017-02-06 14:26:11

Audio #8ID : 9Format : AACFormat/Info : Advanced Audio CodecFormat profile : LCCodec ID : 40Duration : 2 h 24 minBit rate mode : VariableBit rate : 128 kb/sMaximum bit rate : 135 kb/sChannel(s) : 2 channelsChannel positions : Front: L RSampling rate : 48.0 kHzFrame rate : 46.875 FPS (1024 spf)Compression mode : LossyStream size : 133 MiB (5%)Title : VO_ Gavrilov / VO_ GavrilovLanguage : RussianDefault : NoAlternate group : 1Encoded date : UTC 2017-02-06 14:25:43Tagged date : UTC 2017-02-06 14:26:11

Audio #9ID : 10Format : AACFormat/Info : Advanced Audio CodecFormat profile : LCCodec ID : 40Duration : 2 h 24 minBit rate mode : VariableBit rate : 128 kb/sMaximum bit rate : 135 kb/sChannel(s) : 2 channelsChannel positions : Front: L RSampling rate : 48.0 kHzFrame rate : 46.875 FPS (1024 spf)Compression mode : LossyStream size : 133 MiB (5%)Title : VO_ Zhuvov / VO_ ZhuvovLanguage : RussianDefault : NoAlternate group : 1Encoded date : UTC 2017-02-06 14:25:52Tagged date : UTC 2017-02-06 14:26:11

Audio #10ID : 11Format : AACFormat/Info : Advanced Audio CodecFormat profile : LCCodec ID : 40Duration : 2 h 24 minBit rate mode : VariableBit rate : 128 kb/sMaximum bit rate : 135 kb/sChannel(s) : 2 channelsChannel positions : Front: L RSampling rate : 48.0 kHzFrame rate : 46.875 FPS (1024 spf)Compression mode : LossyStream size : 133 MiB (5%)Title : Original / OriginalLanguage : EnglishDefault : NoAlternate group : 1Encoded date : UTC 2017-02-06 14:26:00Tagged date : UTC 2017-02-06 14:26:11

Text #1ID : 12Format : Timed TextMuxing mode : sbtlCodec ID : tx3gDuration : 2 h 19 minBit rate mode : VariableBit rate : 78 b/sStream size : 79.1 KiB (0%)Language : RussianDefault : YesForced : NoAlternate group : 2Encoded date : UTC 2017-02-06 14:26:11Tagged date : UTC 2017-02-06 14:26:11

Text #2ID : 13Format : Timed TextMuxing mode : sbtlCodec ID : tx3gDuration : 2 h 14 minBit rate mode : VariableBit rate : 58 b/sStream size : 57.6 KiB (0%)Language : EnglishDefault : NoForced : NoAlternate group : 2Encoded date : UTC 2017-02-06 14:26:11Tagged date : UTC 2017-02-06 14:26:11
<span class="post-font-serif1">Чужой 4: Воскрешение / Alien: Resurrection</span><span class="post-font-serif1">«Главное - спастись...»</span>

<span class="post-font-serif1">Год выпуска: 1997
Страна: США
Жанр: ужасы, фантастика, боевик, триллер
Продолжительность: 01:56:09
Перевод №1: русский Профессиональный (полное дублирование) Blu-ray CEE
Перевод №2: русский Профессиональный (многоголосый, закадровый) LDV
Перевод №3: русский Профессиональный (многоголосый, закадровый) Киномания
Перевод №4: русский Профессиональный (многоголосый, закадровый) Позитив-Мультимедиа
Перевод №5: русский Профессиональный (многоголосый, закадровый) Супербит
Перевод №6: украинский Профессиональный (многоголосый, закадровый) 1+1
Перевод №7: русский Авторский (одноголосый, закадровый) Дмитрий «Гоблин» Пучков
Перевод №8: русский Авторский (одноголосый, закадровый) А.Гаврилов
Перевод №9: русский Авторский (одноголосый, закадровый) Ю.Живов
Оригинальная дорожка: Есть
Cубтитры: русские, английские (оригинал), Softsub (отключаемые)</span>
<span class="post-font-serif1">Режиссер: Жан-Пьер Жёне / Jean-Pierre Jeunet</span>
<span class="post-font-serif1">Сценаристы: Джосс Уидон / Joss Whedon, Дэн О’Бэннон / Dan O'Bannon, Рональд Шусетт / Ronald Shusett</span>
<span class="post-font-serif1">Оператор: Дариус Хонджи / Darius Khondji</span>
<span class="post-font-serif1">Композитор: Джон Фриззелл / John Frizzell</span>
<span class="post-font-serif1">В ролях: Сигурни Уивер / Sigourney Weaver (Ellen Ripley), Вайнона Райдер / Winona Ryder (Annalee Call), Доминик Пинон / Dominique Pinon (Vriess), Рон Перлман / Ron Perlman (Johner), Гари Дурдан / Gary Dourdan (Christie), Майкл Уинкотт / Michael Wincott (Frank Elgyn), Дж.Э. Фримен / J.E. Freeman (Dr. Mason Wren), Лиленд Орсер / Leland Orser (Larry Purvis), Брэд Дуриф / Brad Dourif (Dr. Jonathan Gediman), Дэн Хедайя / Dan Hedaya (Gen. Martin Perez) и другие .</span>
<span class="post-font-serif1">Бюджет: $75 000 000</span><span class="post-font-serif1">Сборы в США: $ 47 795 658</span><span class="post-font-serif1">Сборы в мире: + $113 580 410 = $161 376 068</span><span class="post-font-serif1">Зрители: 10.2 млн, 2.65 млн, 1.9 млн</span><span class="post-font-serif1">Премьера (мир): 6 ноября 1997</span><span class="post-font-serif1">Релиз на DVD: 30 января 2007, «Двадцатый Век Фокс СНГ», ...</span>
<span class="post-font-serif1">Описание: Спустя двести лет после событий, произошедших на планете-тюрьме, группа ученых, опекаемых военным командованием, клонирует Эллен Рипли, чтобы с ее помощью заполучить детеныша инопланетного монстра. Вскоре он уже сам начинает плодиться, производя на свет новую породу — помесь кровожадного пришельца и… человека.</span>
<span class="post-font-serif1">Релиз группы </span>
<span class="post-font-serif1">Качество: BDRip / рип с BDRemux 1080p / звуковые дорожки <a href="viewtopic.php?t=3048866" class="postLink">отсюда</a>
Формат: MP4
Видео кодек: H.264
Аудио кодек: AAC
Видео: 960x410 AR:2.35 1704 kbps 23.976 fps
Аудио №1: [Russian] 2ch 48 kHz 128 kbps - [Dub] Профессиональный (полное дублирование) Blu-ray CEE
Аудио №2: [Russian] 2ch 48 kHz 128 kbps - [MVO] Профессиональный (многоголосый, закадровый) LDV
Аудио №3: [Russian] 2ch 48 kHz 128 kbps - [MVO] Профессиональный (многоголосый, закадровый) Киномания
Аудио №4: [Russian] 2ch 48 kHz 128 kbps - [MVO] Профессиональный (многоголосый, закадровый) Позитив-Мультимедиа
Аудио №5: [Russian] 2ch 48 kHz 128 kbps - [MVO] Профессиональный (многоголосый, закадровый) Супербит
Аудио №6: [Ukrainian] 2ch 48 kHz 128 kbps - [MVO] Профессиональный (многоголосый, закадровый) 1+1
Аудио №7: [Russian] 2ch 48 kHz 128 kbps - [VO] Авторский (одноголосый, закадровый) Дмитрий «Гоблин» Пучков
Аудио №8: [Russian] 2ch 48 kHz 128 kbps - [VO] Авторский (одноголосый, закадровый) А.Гаврилов
Аудио №9: [Russian] 2ch 48 kHz 128 kbps - [VO] Авторский (одноголосый, закадровый) Ю.Живов
Аудио №10: [English] 2ch 48 kHz 128 kbps - Английский</span>
avs [info]: 960x410p 1:1 @ 2997/125 fps (cfr)
x264 [info]: using SAR=1/1
x264 [info]: using cpu capabilities: MMX2 SSE2Fast SSSE3 SSE4.2 AVX FMA3 AVX2 LZCNT BMI2
x264 [info]: profile High, level 4.1

x264 [info]: frame I:1327 Avg QP:18.31 size: 35032
x264 [info]: frame P:34237 Avg QP:20.40 size: 17449
x264 [info]: frame B:131517 Avg QP:23.16 size: 6388
x264 [info]: consecutive B-frames: 2.6% 2.3% 5.5% 16.7% 16.9% 30.8% 8.7% 4.4% 3.6% 2.9% 2.8% 2.7%
x264 [info]: mb I I16..4: 6.1% 75.8% 18.1%
x264 [info]: mb P I16..4: 0.7% 13.3% 1.6% P16..4: 32.2% 36.7% 9.2% 0.0% 0.0% skip: 6.3%
x264 [info]: mb B I16..4: 0.1% 1.5% 0.2% B16..8: 38.7% 18.9% 2.7% direct: 4.9% skip:33.0% L0:47.1% L1:44.6% BI: 8.3%
x264 [info]: 8x8 transform intra:84.0% inter:66.0%
x264 [info]: coded y,uvDC,uvAC intra: 89.3% 79.9% 43.8% inter: 25.2% 16.8% 0.9%
x264 [info]: i16 v,h,dc,p: 28% 18% 8% 46%
x264 [info]: i8 v,h,dc,ddl,ddr,vr,hd,vl,hu: 6% 6% 5% 11% 16% 15% 15% 12% 14%
x264 [info]: i4 v,h,dc,ddl,ddr,vr,hd,vl,hu: 9% 6% 5% 10% 16% 15% 15% 11% 13%
x264 [info]: i8c dc,h,v,p: 36% 26% 18% 19%
x264 [info]: Weighted P-Frames: Y:28.8% UV:21.6%
x264 [info]: ref P L0: 40.9% 8.4% 18.0% 8.8% 6.7% 5.0% 4.3% 2.6% 2.3% 2.1% 0.7% 0.1%
x264 [info]: ref B L0: 65.4% 13.7% 8.0% 4.1% 3.1% 2.5% 2.0% 0.9% 0.3%
x264 [info]: ref B L1: 92.3% 7.7%
x264 [info]: kb/s:1703.68

encoded 167081 frames, 12.86 fps, 1703.68 kb/s
GeneralComplete name : D:\Torrents\Aliens_Tetralogy.(Director cut).1979-1997.BDRip.x264.960x\Alien-Resurrection.(Director cut).1997.BDRip.x264.960x.rip by Frost O.S.mp4Format : MPEG-4Format profile : Base MediaCodec ID : isom (isom/avc1/iso2)File size : 2.45 GiBDuration : 1 h 56 minOverall bit rate mode : VariableOverall bit rate : 3 024 kb/sMovie name : Alien-Resurrection (Director cut) 1997 BDRip x264 960x rip by Frost O SGenre : ActionContentType : Short FilmEncoded date : UTC 2017-02-06 14:45:49Tagged date : UTC 2017-02-06 14:53:03Writing application : MkvToMp4 version: 0.224 (x64)Cover : YesComment : rip by Frost O.SLongDescription : Спустя двести лет после событий, произошедших на планете-тюрьме, группа ученых, опекаемых военным командованием, клонирует Эллен Рипли, чтобы с ее помощью заполучить детеныша инопланетного монстра. Вскоре он уже сам начинает плодиться, производя на свет новую породу — помесь кровожадного пришельца и… человека.

VideoID : 1Format : AVCFormat/Info : Advanced Video CodecFormat profile : [email protected] settings, CABAC : YesFormat settings, ReFrames : 10 framesCodec ID : avc1Codec ID/Info : Advanced Video CodingDuration : 1 h 56 minBit rate : 1 704 kb/sMaximum bit rate : 6 945 kb/sWidth : 960 pixelsHeight : 410 pixelsDisplay aspect ratio : 2.35:1Frame rate mode : ConstantFrame rate : 23.976 (24000/1001) FPSOriginal frame rate : 23.976 (23976/1000) FPSColor space : YUVChroma subsampling : 4:2:0Bit depth : 8 bitsScan type : ProgressiveBits/(Pixel*Frame) : 0.181Stream size : 1.38 GiB (56%)Writing library : x264 core 148 r2705 3f5ed56Encoding settings : cabac=1 / ref=10 / deblock=1:-2:-2 / analyse=0x3:0x113 / me=umh / subme=11 / psy=1 / psy_rd=0.90:0.00 / mixed_ref=1 / me_range=32 / chroma_me=1 / trellis=2 / 8x8dct=1 / cqm=0 / deadzone=21,11 / fast_pskip=1 / chroma_qp_offset=-2 / threads=6 / lookahead_threads=1 / sliced_threads=0 / nr=0 / decimate=1 / interlaced=0 / bluray_compat=0 / constrained_intra=0 / bframes=11 / b_pyramid=2 / b_adapt=2 / b_bias=0 / direct=1 / weightb=1 / open_gop=0 / weightp=2 / keyint=250 / keyint_min=23 / scenecut=40 / intra_refresh=0 / rc=crf / mbtree=0 / crf=20.0 / qcomp=0.65 / qpmin=0 / qpmax=69 / qpstep=4 / ip_ratio=1.40 / pb_ratio=1.30 / aq=1:1.00Language : EnglishEncoded date : UTC 2017-02-06 14:45:49Tagged date : UTC 2017-02-06 14:48:00Color range : LimitedColor primaries : BT.709Transfer characteristics : BT.709Matrix coefficients : BT.709

Audio #1ID : 2Format : AACFormat/Info : Advanced Audio CodecFormat profile : LCCodec ID : 40Duration : 1 h 56 minBit rate mode : VariableBit rate : 128 kb/sMaximum bit rate : 135 kb/sChannel(s) : 2 channelsChannel positions : Front: L RSampling rate : 48.0 kHzFrame rate : 46.875 FPS (1024 spf)Compression mode : LossyStream size : 106 MiB (4%)Title : Dub_ Blu_ray CEE / Dub_ Blu_ray CEELanguage : RussianDefault : YesAlternate group : 1Encoded date : UTC 2017-02-06 14:46:38Tagged date : UTC 2017-02-06 14:48:00

Audio #2ID : 3Format : AACFormat/Info : Advanced Audio CodecFormat profile : LCCodec ID : 40Duration : 1 h 56 minBit rate mode : VariableBit rate : 128 kb/sMaximum bit rate : 135 kb/sChannel(s) : 2 channelsChannel positions : Front: L RSampling rate : 48.0 kHzFrame rate : 46.875 FPS (1024 spf)Compression mode : LossyStream size : 106 MiB (4%)Title : MVO_ LDV / MVO_ LDVLanguage : RussianDefault : NoAlternate group : 1Encoded date : UTC 2017-02-06 14:46:46Tagged date : UTC 2017-02-06 14:48:00

Audio #3ID : 4Format : AACFormat/Info : Advanced Audio CodecFormat profile : LCCodec ID : 40Duration : 1 h 56 minBit rate mode : VariableBit rate : 128 kb/sMaximum bit rate : 135 kb/sChannel(s) : 2 channelsChannel positions : Front: L RSampling rate : 48.0 kHzFrame rate : 46.875 FPS (1024 spf)Compression mode : LossyStream size : 106 MiB (4%)Title : MVO_ Kinomaniya / MVO_ KinomaniyaLanguage : RussianDefault : NoAlternate group : 1Encoded date : UTC 2017-02-06 14:46:55Tagged date : UTC 2017-02-06 14:48:00

Audio #4ID : 5Format : AACFormat/Info : Advanced Audio CodecFormat profile : LCCodec ID : 40Duration : 1 h 56 minBit rate mode : VariableBit rate : 128 kb/sMaximum bit rate : 135 kb/sChannel(s) : 2 channelsChannel positions : Front: L RSampling rate : 48.0 kHzFrame rate : 46.875 FPS (1024 spf)Compression mode : LossyStream size : 106 MiB (4%)Title : MVO_ Pozitiv_Multimediya / MVO_ Pozitiv_MultimediyaLanguage : RussianDefault : NoAlternate group : 1Encoded date : UTC 2017-02-06 14:47:02Tagged date : UTC 2017-02-06 14:48:00

Audio #5ID : 6Format : AACFormat/Info : Advanced Audio CodecFormat profile : LCCodec ID : 40Duration : 1 h 56 minBit rate mode : VariableBit rate : 128 kb/sMaximum bit rate : 135 kb/sChannel(s) : 2 channelsChannel positions : Front: L RSampling rate : 48.0 kHzFrame rate : 46.875 FPS (1024 spf)Compression mode : LossyStream size : 106 MiB (4%)Title : MVO_ Superbit / MVO_ SuperbitLanguage : RussianDefault : NoAlternate group : 1Encoded date : UTC 2017-02-06 14:47:09Tagged date : UTC 2017-02-06 14:48:00

Audio #6ID : 7Format : AACFormat/Info : Advanced Audio CodecFormat profile : LCCodec ID : 40Duration : 1 h 56 minBit rate mode : VariableBit rate : 128 kb/sMaximum bit rate : 135 kb/sChannel(s) : 2 channelsChannel positions : Front: L RSampling rate : 48.0 kHzFrame rate : 46.875 FPS (1024 spf)Compression mode : LossyStream size : 106 MiB (4%)Title : MVO_ 1_1 / MVO_ 1_1Language : UkrainianDefault : NoAlternate group : 1Encoded date : UTC 2017-02-06 14:47:17Tagged date : UTC 2017-02-06 14:48:00

Audio #7ID : 8Format : AACFormat/Info : Advanced Audio CodecFormat profile : LCCodec ID : 40Duration : 1 h 56 minBit rate mode : VariableBit rate : 128 kb/sMaximum bit rate : 135 kb/sChannel(s) : 2 channelsChannel positions : Front: L RSampling rate : 48.0 kHzFrame rate : 46.875 FPS (1024 spf)Compression mode : LossyStream size : 106 MiB (4%)Title : VO_ Goblin / VO_ GoblinLanguage : RussianDefault : NoAlternate group : 1Encoded date : UTC 2017-02-06 14:47:27Tagged date : UTC 2017-02-06 14:48:00

Audio #8ID : 9Format : AACFormat/Info : Advanced Audio CodecFormat profile : LCCodec ID : 40Duration : 1 h 56 minBit rate mode : VariableBit rate : 128 kb/sMaximum bit rate : 135 kb/sChannel(s) : 2 channelsChannel positions : Front: L RSampling rate : 48.0 kHzFrame rate : 46.875 FPS (1024 spf)Compression mode : LossyStream size : 106 MiB (4%)Title : VO_ Gavrilov / VO_ GavrilovLanguage : RussianDefault : NoAlternate group : 1Encoded date : UTC 2017-02-06 14:47:35Tagged date : UTC 2017-02-06 14:48:00

Audio #9ID : 10Format : AACFormat/Info : Advanced Audio CodecFormat profile : LCCodec ID : 40Duration : 1 h 56 minBit rate mode : VariableBit rate : 128 kb/sMaximum bit rate : 135 kb/sChannel(s) : 2 channelsChannel positions : Front: L RSampling rate : 48.0 kHzFrame rate : 46.875 FPS (1024 spf)Compression mode : LossyStream size : 106 MiB (4%)Title : VO_ Zhuvov / VO_ ZhuvovLanguage : RussianDefault : NoAlternate group : 1Encoded date : UTC 2017-02-06 14:47:44Tagged date : UTC 2017-02-06 14:48:00

Audio #10ID : 11Format : AACFormat/Info : Advanced Audio CodecFormat profile : LCCodec ID : 40Duration : 1 h 56 minBit rate mode : VariableBit rate : 128 kb/sMaximum bit rate : 135 kb/sChannel(s) : 2 channelsChannel positions : Front: L RSampling rate : 48.0 kHzFrame rate : 46.875 FPS (1024 spf)Compression mode : LossyStream size : 106 MiB (4%)Title : Original / OriginalLanguage : EnglishDefault : NoAlternate group : 1Encoded date : UTC 2017-02-06 14:47:52Tagged date : UTC 2017-02-06 14:48:00

Text #1ID : 12Format : Timed TextMuxing mode : sbtlCodec ID : tx3gDuration : 1 h 49 minBit rate mode : VariableBit rate : 62 b/sStream size : 49.6 KiB (0%)Language : RussianDefault : YesForced : NoAlternate group : 2Encoded date : UTC 2017-02-06 14:48:00Tagged date : UTC 2017-02-06 14:48:00

Text #2ID : 13Format : Timed TextMuxing mode : sbtlCodec ID : tx3gDuration : 1 h 56 minBit rate mode : VariableBit rate : 44 b/sStream size : 37.3 KiB (0%)Language : EnglishDefault : NoForced : NoAlternate group : 2Encoded date : UTC 2017-02-06 14:48:00Tagged date : UTC 2017-02-06 14:48:00
<div class="clear" style="height: 8px;"></div>

Трекер:  [ 06-Фев-2017 19:30 ]

  

Скачать .torrent

Размер .torrent файла 29 KB


Размер: 11.23 GB
Хэш (hash) релиза: d9e8f93c5c938d1772aa56e5cc01b82cbade5075

Еще никто не оставлял запись к записи скачать торрент [VIDEO] Чужой: Тетралогия Alien: Tetralogy . Будь первым!

!Обратная связь