2016 MBC Drama Awards | Wesley: The Great Adventurer - 冒險王衛斯理之支離人Wesley: The Great Adventurer | Wayne Pére

Скачать через торрент музыку Tengen Toppa Gurren Lagann Гуррен-Лаганн - 2007-2009 г., FLAC бесплатно без регистрации torrent

Статистика раздачи
Размер:  2.68 GB   |    Зарегистрирован:  1 год 5 месяцев   |    .torrent скачан:  21 раз   |   
Раздают:  1  
   
загрузка...
 
Автор Сообщение

Galfimbul

avatar Galfimbul


<span class="post-font-cursive1">Гуррен-ЛаганнОбщие характеристики:
Производство:
Год выпуска: 2007-2009
Формат: <a href="viewtopic.php?t=48706" class="postLink"> </a>
Частота: 44100Гц
Продолжительность: 112 треков - 6:05:39
Альбомы:</span>
[spoiler="2007 - Best Sound [SVWC 7493~7495]"]
Best Sound
Список треков:
01. Sorairo Days [4:13]
02. Underground [3:02]
03. Minna no Peace [2:38]
04. Happily Ever After [3:31]
05. Break Through the Dream [4:11]
06. Trust [4:46]
Список треков:
01. Rap wa Kan no Tamashii da! Muri wo Toushite Douri wo Kettobasu! [3:22]
02. Mogura wa Mogura no Mama na no ka? [2:54]
03. Boin VS Boin [3:08]
04. Gakotsu ni Nacchimatta Kamina no Oyaji ni Yoseru Aika [3:11]
05. Ookami ga Kita!! [3:11]
06. BagBag! Sonna ni Moeru no ga... Suki Kai? [5:28]
07. Nikopol [3:22]
08. Tsuki to Hoshi to A-ta-shi [3:02]
09. Nessa no Areno wo Nukete dai Gurren Dan ga Iku no da [2:28]
10. Rap wa Kan no Tamashii da! Onore wo Shinjite Ten wo Yubi Sasu Dotou no Otoko. [2:56]
11. 'Moe'tte Itai Nandesuka? [3:29]
12. Omaera Zenin Moete Shimaetsu!!! [3:41]
13. Gatta Nante Kuso Kurae [3:17]
14. Mawatte Mawatte Mawatte Mawatte Tetete... [4:23]
15. Love Conservative [4:12]
16. Rap wa Kan no Tamashii... Datta... yo na... [3:03]
17. The Blue Monday Electrical Parade [4:40]
18. Douda! Ore no Trumpet wa Sugoi Darou!! [3:22]
19. 'Libera me' from hell [4:49]
20. Omae no XXX de... [1:14]
21. Omae no XXX de Ten wo Tsuke! [3:39]
[spoiler="2007 - Character Song CD [SVWC-7476]"]
Character Song CD
Список треков:
01. Break Through the Dream [4:11]
02. Trust [4:48]
03. Break Through the Dream (Karaoke) [4:11]
04. Trust (Karaoke) [4:48]
05. Break Through The Dream -Pop’N Music Edit- [2:05]
06. Trust -Dance Dance Revolution Mix- [1:44]
[/spoiler]
[spoiler="2008 - OST [SVWC 7527~8]"]
OST
Список треков:
01. No Way! Only 1m20 to Do it [1:20]
02. Moles are Mere Moles, Right? [2:53]
03. Rap is Man's Soul! [2:56]
04. Boota Dreams of Spirals? [2:54]
05. Boobs VS Boobs [3:08]
06. Can't Stop Burning? [5:12]
07. Drill to Heaven with Your XXX!! ~First Time Outside ver.~ [2:09]
08. Elegy for Kamina's Father, Now a Skeleton [3:11]
09. The Wolf Has Come!! [3:13]
10. Nikopol [3:22]
11. The Moon, the Stars and I [3:02]
12. Wow Three Sisters [3:03]
13. Ack! Skee!! Skeletonn!!! [2:43]
14. ll of You, Get Burned!!! [3:43]
15. Rise Your XXX! [2:23]
16. He is so XXX [2:34]
17. Lovely Boobs [2:40]
18. Peeping Tom [1:36]
19. Peeping Tom [3:03]
20. Lots of Old Men [2:18]
21. Whaddya Believe in! [2:32]
22. Whaddya Need to Prepare!! [1:49]
23. To Hell with Your Combi (Insert Song No.1 Allegro in C minor K2564) [3:17]
24. What the Heck is 'Moe'? [3:29]
25. With Your XXX... [1:17]
26. Eye Catch I [0:08]
Список треков:
01. Eye Catch II [0:07]
02. Rap is Man's Soul! (Short Start Edit) [2:47]
03. How Tiring are Travels [2:54]
04. The Heck is 'Moe'...? [2:13]
05. Whaddya Think in the Dark!! [2:25]
06. BafBaf! Burning Like that... Likable? [5:28]
07. Super Combi (Insert Song No.2 K3845 Progre) [2:17]
08. Spin, Spin, Spin, Spi!? [2:57]
09. Spin, Spin, Spin, Spinnnn... [4:23]
10. Team Dai-Gurren Quit the Scorching Sands [2:28]
11. Eye Catch III [0:08]
12. Eye Catch IV [0:10]
13. Time is an Aged Traveler [2:52]
14. Adaimura's Decorator [2:28]
15. Let's Settle with Glasses [3:24]
16. How Great is My Trumpet, Yeah!! [3:22]
17. Rap is Man's Soul......Maybe...Dunno... [3:04]
18. Smaterring of Resort Life [2:32]
19. Poison Prison [2:38]
20. Someone Blames Someone [2:44]
21. The Blue monday e'r'ectrical parade [4:41]
22. 'Libera me' from hell [4:47]
23. Love Conservative [4:12]
24. To Heaven with Your XXX... [2:05]
25. Drill to Heaven with Your XXX!! [3:39]
[/spoiler]
[spoiler="2009 - Character Song CD 2 [ANZB-2784]"]
Character Song CD 2
Список треков:
01. S.T.A.R.S [4:27]
02. S.T.A.R.S -Instrumental- [4:27]
03. S.T.A.R.S -Kirameki Mix- [3:44]
[/spoiler]
[spoiler="2009 - Movie OST Plus [SVWC-7626]"]
Movie OST Plus
Список треков:
01. Please, Burn in Silence ~ Our Father Who Art in Heaven [3:34]
02. One Promise, Only One [2:10]
03. My XXX is Cosmic [5:14]
[/spoiler]
[/spoiler]
Синглы:
[spoiler="2007 - OP [SRCL-6572]"]
OP
Список треков:
01. Sorairo Days [4:14]
02. happily ever after [3:30]
03. Mitsubachi no Sasayaki [4:01]
04. Sorairo Days -Instrumental- [4:12]
[spoiler="2007 - OP [LE] [SRCL-6573]"]
OP [LE]
Список треков:
01. Sorairo Days (Sky Blue Days) [4:14]
02. Happily Ever After [3:30]
03. Sorairo Days -of Construction- [1:34]
04. Sorairo Days -of Realization- [1:33]
[/spoiler]
[spoiler="2007 - ED [AICL-1819]"]
ED
Список треков:
01. Underground [3:03]
02. Runner [3:26]
03. Non-Verbal-Communication (Remaster) [3:00]
[/spoiler]
[spoiler="2007 - ED 2 [ESCL-2979]"]
ED 2
Список треков:
01. Sorairo Days (Sky Blue Days) [4:14]
02. Happily Ever After [3:30]
03. Sorairo Days -of Construction- [1:34]
04. Sorairo Days -of Realization- [1:33]
[/spoiler]
[spoiler="2008 - Movie Single [SRCL-6845]"]
Movie Single
Список треков:
01. Tsuzuku Sekai [4:50]
02. Through the Looking Glass [4:38]
03. Tsuzuku Sekai -Instrumental- [4:51]
04. Sorairo Days -Spiral Chiptune Mix- [4:08]
[/spoiler]
[spoiler="2009 - Movie Single 2 [SRCL-7024]"]
Movie Single 2
Список треков:
01. Namida no Tane, Egao no Hana [4:45]
02. Gozen Rokuji [4:15]
03. Sorairo Days -Tengen Toppa EDITION Lagann-hen- [5:37]
04. Namida no Tane, Egao no Hana -Movie Edit- [5:04]
[/spoiler]
[/spoiler]
Проверка:
Exact Audio Copy V1.3 from 2. September 2016

EAC extraction logfile from 9. January 2017, 19:27

- / Gurren Lagann - Best Sound

Used drive : PLEXTOR CD-R PREMIUM2 Adapter: 1 ID: 0

Read mode : SecureUtilize accurate stream : YesDefeat audio cache : YesMake use of C2 pointers : No

Read offset correction : 30Overread into Lead-In and Lead-Out : YesFill up missing offset samples with silence : YesDelete leading and trailing silent blocks : NoNull samples used in CRC calculations : YesUsed interface : Native Win32 interface for Win NT & 2000Gap handling : Appended to previous track

Used output format : User Defined EncoderSelected bitrate : 1024 kBit/sQuality : HighAdd ID3 tag : NoCommand line compressor : C:\Program Files (x86)\Exact Audio Copy RIP\Flac\flac.exeAdditional command line options : -V -8 -T "Genre=%genre%" -T "Artist=%artist%" -T "Title=%title%" -T "Album=%albumtitle%" -T "Date=%year%" -T "Tracknumber=%tracknr%" -T "Comment=%comment%" %source%

TOC of the extracted CD

Track | Start | Length | Start sector | End sector --------------------------------------------------------- 1 | 0:00.00 | 4:13.03 | 0 | 18977 2 | 4:13.03 | 3:02.04 | 18978 | 32631 3 | 7:15.07 | 2:37.53 | 32632 | 44459 4 | 9:52.60 | 3:30.45 | 44460 | 60254 5 | 13:23.30 | 4:10.40 | 60255 | 79044 6 | 17:33.70 | 4:45.38 | 79045 | 100457

Track 1

Filename D:\Work\RIPs\01 - Sorairo Days.wav

Pre-gap length 0:00:02.00

Peak level 99.9 % Extraction speed 8.9 X Track quality 100.0 % Test CRC 308499F3 Copy CRC 308499F3 Accurately ripped (confidence 16) [7B4691EB] (AR v2) Copy OK

Track 2

Filename D:\Work\RIPs\02 - Underground.wav

Peak level 81.5 % Extraction speed 9.5 X Track quality 100.0 % Test CRC 1CEA62D8 Copy CRC 1CEA62D8 Accurately ripped (confidence 16) [9117E40A] (AR v2) Copy OK

Track 3

Filename D:\Work\RIPs\03 - Minna no Peace.wav

Peak level 100.0 % Extraction speed 8.1 X Track quality 99.9 % Test CRC 62C70D06 Copy CRC 62C70D06 Accurately ripped (confidence 16) [B478B47B] (AR v2) Copy OK

Track 4

Filename D:\Work\RIPs\04 - Happily Ever After.wav

Peak level 99.9 % Extraction speed 10.5 X Track quality 100.0 % Test CRC 21AAC7B9 Copy CRC 21AAC7B9 Accurately ripped (confidence 16) [C7556C6F] (AR v2) Copy OK

Track 5

Filename D:\Work\RIPs\05 - Break Through the Dream.wav

Peak level 100.0 % Extraction speed 11.3 X Track quality 100.0 % Test CRC 5B636454 Copy CRC 5B636454 Accurately ripped (confidence 16) [305F6CE3] (AR v2) Copy OK

Track 6

Filename D:\Work\RIPs\06 - Trust.wav

Peak level 100.0 % Extraction speed 10.3 X Track quality 99.9 % Test CRC 65F2F4D8 Copy CRC 65F2F4D8 Accurately ripped (confidence 16) [95FACC03] (AR v2) Copy OK

All tracks accurately ripped

No errors occurred

End of status report

---- CUETools DB Plugin V2.1.6

[CTDB TOCID: pnqw7ajR0xXGfCuGj61k4O5jpkM-] foundSubmit result: already submittedTrack | CTDB Status 1 | (41/41) Accurately ripped 2 | (41/41) Accurately ripped 3 | (41/41) Accurately ripped 4 | (41/41) Accurately ripped 5 | (41/41) Accurately ripped 6 | (40/41) Accurately ripped

==== Log checksum 47B6341DC86EBD797C25E504566DF91FB6FC1961A1130AD7EE7955CB3BA0ABA2 ====
-----------------------

DON'T MODIFY THIS FILE

-----------------------

PERFORMER: auCDtect Task Manager, ver. 1.6.0 RC1 build 1.6.0.1Copyright (c) 2008-2010 y-soft. All rights reservedhttp://y-soft.org

ANALYZER: auCDtect: CD records authenticity detector, version 0.8.2Copyright (c) 2004 Oleg Berngardt. All rights reserved.Copyright (c) 2004 Alexander Djourik. All rights reserved.

FILE: 03 - Minna no Peace.flac Size: 19115784 Hash: CA77245DCD408BB38D522747DEB1CA4A Accuracy: -m0 Conclusion: CDDA 100% Signature: 74457F75CF14982C8853AB9023AA1E69FD30F240FILE: 02 - Underground.flac Size: 22293581 Hash: 2347F3098DB3E5F0A7D62890F8C70322 Accuracy: -m0 Conclusion: CDDA 100% Signature: 9502003A43F6469D1300F7E4133778158306EF4DFILE: 01 - Sorairo Days.flac Size: 34714646 Hash: B3AE65BBD823B5C52C915731B92E2626 Accuracy: -m0 Conclusion: CDDA 100% Signature: BC73BF30F8F18144FF0FF419524F13153CCBFEFDFILE: 06 - Trust.flac Size: 36787512 Hash: 30E7C866C69B3878AB5BF494596E346B Accuracy: -m0 Conclusion: CDDA 100% Signature: 0593FF215B2F0945CCC7E7EF99DFE80A88934A61FILE: 05 - Break Through the Dream.flac Size: 30920887 Hash: E08F884B179623506302F2F5E4CE0A8B Accuracy: -m0 Conclusion: CDDA 99% Signature: A0E09D82244B2785525181B86C601E80C124F23DFILE: 04 - Happily Ever After.flac Size: 27454953 Hash: 0A022B10741491E515C4562D412D85BA Accuracy: -m0 Conclusion: CDDA 100% Signature: 293B55065EFE9491F1A26093005FE021B4F90AA7
Exact Audio Copy V1.3 from 2. September 2016

EAC extraction logfile from 9. January 2017, 0:14

- / Gurren Lagann - Best Sound

Used drive : PLEXTOR CD-R PREMIUM2 Adapter: 1 ID: 0

Read mode : SecureUtilize accurate stream : YesDefeat audio cache : YesMake use of C2 pointers : No

Read offset correction : 30Overread into Lead-In and Lead-Out : YesFill up missing offset samples with silence : YesDelete leading and trailing silent blocks : NoNull samples used in CRC calculations : YesUsed interface : Native Win32 interface for Win NT & 2000Gap handling : Appended to previous track

Used output format : User Defined EncoderSelected bitrate : 1024 kBit/sQuality : HighAdd ID3 tag : NoCommand line compressor : C:\Program Files (x86)\Exact Audio Copy RIP\Flac\flac.exeAdditional command line options : -V -8 -T "Genre=%genre%" -T "Artist=%artist%" -T "Title=%title%" -T "Album=%albumtitle%" -T "Date=%year%" -T "Tracknumber=%tracknr%" -T "Comment=%comment%" %source%

TOC of the extracted CD

Track | Start | Length | Start sector | End sector --------------------------------------------------------- 1 | 0:00.00 | 3:22.32 | 0 | 15181 2 | 3:22.32 | 2:54.25 | 15182 | 28256 3 | 6:16.57 | 3:07.48 | 28257 | 42329 4 | 9:24.30 | 3:11.15 | 42330 | 56669 5 | 12:35.45 | 3:11.00 | 56670 | 70994 6 | 15:46.45 | 5:28.19 | 70995 | 95613 7 | 21:14.64 | 3:22.21 | 95614 | 110784 8 | 24:37.10 | 3:01.42 | 110785 | 124401 9 | 27:38.52 | 2:28.28 | 124402 | 135529 10 | 30:07.05 | 2:56.17 | 135530 | 148746 11 | 33:03.22 | 3:29.10 | 148747 | 164431 12 | 36:32.32 | 3:40.38 | 164432 | 180969 13 | 40:12.70 | 3:16.65 | 180970 | 195734 14 | 43:29.60 | 4:23.12 | 195735 | 215471 15 | 47:52.72 | 4:11.65 | 215472 | 234361 16 | 52:04.62 | 3:03.29 | 234362 | 248115 17 | 55:08.16 | 4:40.09 | 248116 | 269124 18 | 59:48.25 | 3:22.30 | 269125 | 284304 19 | 63:10.55 | 4:48.60 | 284305 | 305964 20 | 67:59.40 | 1:14.25 | 305965 | 311539 21 | 69:13.65 | 3:38.60 | 311540 | 327949

Track 1

Filename D:\Work\RIPs\01 - Rap wa Kan no Tamashii da! Muri wo Toushite Douri wo Kettobasu!.wav

Pre-gap length 0:00:02.00

Peak level 100.0 % Extraction speed 8.8 X Track quality 100.0 % Test CRC D0765DE1 Copy CRC D0765DE1 Accurately ripped (confidence 2) [B1430671] (AR v2) Copy OK

Track 2

Filename D:\Work\RIPs\02 - Mogura wa Mogura no Mama na no ka.wav

Peak level 62.1 % Extraction speed 9.3 X Track quality 100.0 % Test CRC 7180273D Copy CRC 7180273D Accurately ripped (confidence 2) [03B3C27B] (AR v2) Copy OK

Track 3

Filename D:\Work\RIPs\03 - Boin VS Boin.wav

Peak level 100.0 % Extraction speed 9.9 X Track quality 100.0 % Test CRC 845D6434 Copy CRC 845D6434 Accurately ripped (confidence 2) [F34211B5] (AR v2) Copy OK

Track 4

Filename D:\Work\RIPs\04 - Gakotsu ni Nacchimatta Kamina no Oyaji ni Yoseru Aika.wav

Peak level 99.8 % Extraction speed 9.0 X Track quality 99.9 % Test CRC EB036F8E Copy CRC EB036F8E Accurately ripped (confidence 2) [E5868CA2] (AR v2) Copy OK

Track 5

Filename D:\Work\RIPs\05 - Ookami ga Kita!!.wav

Peak level 100.0 % Extraction speed 10.9 X Track quality 100.0 % Test CRC DD322A4A Copy CRC DD322A4A Accurately ripped (confidence 2) [EC5CA7F1] (AR v2) Copy OK

Track 6

Filename D:\Work\RIPs\06 - BagBag! Sonna ni Moeru no ga... Suki Kai.wav

Peak level 100.0 % Extraction speed 11.9 X Track quality 100.0 % Test CRC 8603CD8D Copy CRC 8603CD8D Accurately ripped (confidence 2) [DE06B773] (AR v2) Copy OK

Track 7

Filename D:\Work\RIPs\07 - Nikopol.wav

Peak level 100.0 % Extraction speed 12.3 X Track quality 100.0 % Test CRC D897023E Copy CRC D897023E Accurately ripped (confidence 2) [B0E5B9BF] (AR v2) Copy OK

Track 8

Filename D:\Work\RIPs\08 - Tsuki to Hoshi to A-ta-shi.wav

Peak level 84.6 % Extraction speed 10.3 X Track quality 99.9 % Test CRC DF7202EE Copy CRC DF7202EE Accurately ripped (confidence 2) [76E59322] (AR v2) Copy OK

Track 9

Filename D:\Work\RIPs\09 - Nessa no Areno wo Nukete dai Gurren Dan ga Iku no da.wav

Peak level 100.0 % Extraction speed 10.2 X Track quality 99.9 % Test CRC 6777C75F Copy CRC 6777C75F Accurately ripped (confidence 2) [F7488EBD] (AR v2) Copy OK

Track 10

Filename D:\Work\RIPs\10 - Rap wa Kan no Tamashii da! Onore wo Shinjite Ten wo Yubi Sasu Dotou no Otoko..wav

Peak level 100.0 % Extraction speed 13.2 X Track quality 100.0 % Test CRC C76CCDD5 Copy CRC C76CCDD5 Accurately ripped (confidence 2) [E45C6702] (AR v2) Copy OK

Track 11

Filename D:\Work\RIPs\11 - ''Moe''tte Itai Nandesuka.wav

Peak level 94.4 % Extraction speed 11.7 X Track quality 99.9 % Test CRC F5F273E9 Copy CRC F5F273E9 Accurately ripped (confidence 2) [9E452437] (AR v2) Copy OK

Track 12

Filename D:\Work\RIPs\12 - Omaera Zenin Moete Shimaetsu!!!.wav

Peak level 100.0 % Extraction speed 14.2 X Track quality 100.0 % Test CRC DC81FEF1 Copy CRC DC81FEF1 Accurately ripped (confidence 2) [10E9C09F] (AR v2) Copy OK

Track 13

Filename D:\Work\RIPs\13 - Gatta Nante Kuso Kurae.wav

Peak level 100.0 % Extraction speed 12.3 X Track quality 99.9 % Test CRC 3CEDE0D4 Copy CRC 3CEDE0D4 Accurately ripped (confidence 2) [B78802C1] (AR v2) Copy OK

Track 14

Filename D:\Work\RIPs\14 - Mawatte Mawatte Mawatte Mawatte Tetete....wav

Peak level 100.0 % Extraction speed 15.0 X Track quality 100.0 % Test CRC D4E3BE30 Copy CRC D4E3BE30 Accurately ripped (confidence 2) [49F9E832] (AR v2) Copy OK

Track 15

Filename D:\Work\RIPs\15 - Love Conservative.wav

Peak level 99.7 % Extraction speed 15.5 X Track quality 100.0 % Test CRC 0A135AFE Copy CRC 0A135AFE Accurately ripped (confidence 2) [AA6EBB5F] (AR v2) Copy OK

Track 16

Filename D:\Work\RIPs\16 - Rap wa Kan no Tamashii... Datta... yo na....wav

Peak level 100.0 % Extraction speed 15.4 X Track quality 100.0 % Test CRC 1B6FEB86 Copy CRC 1B6FEB86 Accurately ripped (confidence 2) [7C2A2EE1] (AR v2) Copy OK

Track 17

Filename D:\Work\RIPs\17 - The Blue Monday Electrical Parade.wav

Peak level 100.0 % Extraction speed 16.1 X Track quality 100.0 % Test CRC B4825AA7 Copy CRC B4825AA7 Accurately ripped (confidence 2) [939AD7C5] (AR v2) Copy OK

Track 18

Filename D:\Work\RIPs\18 - Douda! Ore no Trumpet wa Sugoi Darou!!.wav

Pre-gap length 0:00:00.35

Peak level 100.0 % Extraction speed 16.1 X Track quality 100.0 % Test CRC FB88114B Copy CRC FB88114B Accurately ripped (confidence 2) [E4621EF2] (AR v2) Copy OK

Track 19

Filename D:\Work\RIPs\19 - ''Libera me'' from hell.wav

Pre-gap length 0:00:00.69

Peak level 100.0 % Extraction speed 15.0 X Track quality 99.9 % Test CRC C6CAA583 Copy CRC C6CAA583 Accurately ripped (confidence 2) [F5761897] (AR v2) Copy OK

Track 20

Filename D:\Work\RIPs\20 - Omae no XXX de....wav

Pre-gap length 0:00:32.57

Peak level 53.7 % Extraction speed 9.7 X Track quality 99.8 % Test CRC 5F94E79F Copy CRC 5F94E79F Accurately ripped (confidence 2) [398445BB] (AR v2) Copy OK

Track 21

Filename D:\Work\RIPs\21 - Omae no XXX de Ten wo Tsuke!.wav

Pre-gap length 0:00:35.21

Peak level 100.0 % Extraction speed 14.3 X Track quality 99.9 % Test CRC 7DB61B1B Copy CRC 7DB61B1B Accurately ripped (confidence 2) [327E6C02] (AR v2) Copy OK

All tracks accurately ripped

No errors occurred

End of status report

---- CUETools DB Plugin V2.1.6

[CTDB TOCID: 5KgUZh78Uvie1lIak9osN.fM2C0-] foundSubmit result: already submittedTrack | CTDB Status 1 | (48/48) Accurately ripped 2 | (47/48) Accurately ripped 3 | (48/48) Accurately ripped 4 | (48/48) Accurately ripped 5 | (48/48) Accurately ripped 6 | (48/48) Accurately ripped 7 | (48/48) Accurately ripped 8 | (48/48) Accurately ripped 9 | (48/48) Accurately ripped 10 | (48/48) Accurately ripped 11 | (48/48) Accurately ripped 12 | (48/48) Accurately ripped 13 | (48/48) Accurately ripped 14 | (48/48) Accurately ripped 15 | (48/48) Accurately ripped 16 | (48/48) Accurately ripped 17 | (47/48) Accurately ripped 18 | (48/48) Accurately ripped 19 | (44/48) Accurately ripped 20 | (48/48) Accurately ripped 21 | (46/48) Accurately ripped

==== Log checksum 4BAF3A8DA762D8C03B2F5F9299FEC9BA8DCF446AFABFE2AAD7DC868D962DB027 ====
-----------------------

DON'T MODIFY THIS FILE

-----------------------

PERFORMER: auCDtect Task Manager, ver. 1.6.0 RC1 build 1.6.0.1Copyright (c) 2008-2010 y-soft. All rights reservedhttp://y-soft.org

ANALYZER: auCDtect: CD records authenticity detector, version 0.8.2Copyright (c) 2004 Oleg Berngardt. All rights reserved.Copyright (c) 2004 Alexander Djourik. All rights reserved.

FILE: 12 - Omaera Zenin Moete Shimaetsu!!!.flac Size: 24059315 Hash: FA2357BF507C632CE42AAE93E3B447E0 Accuracy: -m0 Conclusion: CDDA 100% Signature: 3C8FCDF6A81F6291D32B222AD749743C2FFE0EBAFILE: 11 - ''Moe''tte Itai Nandesuka.flac Size: 18069669 Hash: DF2F8CF90A0F3119E676804FE9F5632F Accuracy: -m0 Conclusion: CDDA 99% Signature: 635DECD035A30DFACC35363FAA99D8E1531E70C0FILE: 10 - Rap wa Kan no Tamashii da! Onore wo Shinjite Ten wo Yubi Sasu Dotou no Otoko..flac Size: 19324555 Hash: 2C83F1F5B786C69DAC5568297BBB05E9 Accuracy: -m0 Conclusion: CDDA 100% Signature: 215D5C7070DE7A2C9298BD43155061E6C63443D1FILE: 09 - Nessa no Areno wo Nukete dai Gurren Dan ga Iku no da.flac Size: 14764765 Hash: EE04E41A699D15C56ECEDD3D01D965B7 Accuracy: -m0 Conclusion: CDDA 100% Signature: 504669E45616ABBB61039C631D74C2B6FAFF3224FILE: 08 - Tsuki to Hoshi to A-ta-shi.flac Size: 16200207 Hash: 284D608F9B1C753A03011470C92274EA Accuracy: -m0 Conclusion: CDDA 100% Signature: 4BB6888E01588DADBEA60F5D8492E1A44E40702AFILE: 07 - Nikopol.flac Size: 25981698 Hash: 8F99C84831C90A6449C6A034D64D4D9C Accuracy: -m0 Conclusion: CDDA 100% Signature: 6F7F3B14FDC692627D8AC4B3CD1B84B56AD83AFAFILE: 06 - BagBag! Sonna ni Moeru no ga... Suki Kai.flac Size: 35366210 Hash: A2C7117426E4E736ABD95386A76BE51D Accuracy: -m0 Conclusion: CDDA 100% Signature: BA2C133FB00A5BD95BCF7929C9E5AE192FD0FABEFILE: 05 - Ookami ga Kita!!.flac Size: 21336178 Hash: 0AD8624275B46CF415635929920F011C Accuracy: -m0 Conclusion: CDDA 100% Signature: E36BA6FF5E0C0A5FD2E55F49D33CF323072D30E4FILE: 04 - Gakotsu ni Nacchimatta Kamina no Oyaji ni Yoseru Aika.flac Size: 16230901 Hash: F03D963F36A76FAC736C4AE6E98B0B18 Accuracy: -m0 Conclusion: CDDA 100% Signature: 1953915FA0891404EC1C6E8584CC7BD7B0194401FILE: 03 - Boin VS Boin.flac Size: 22116815 Hash: A18922C4DFBC752BE5DE055CF4E69C6E Accuracy: -m0 Conclusion: CDDA 100% Signature: AA15904BF144BA3EEBAD979A0F6BEE8B6B1E1946FILE: 02 - Mogura wa Mogura no Mama na no ka.flac Size: 14409375 Hash: CB7EF8953897B6DA477323AF1E31B420 Accuracy: -m0 Conclusion: CDDA 100% Signature: 5AAC7456C170D9F481F1BE81FFD7AE366FCFA069FILE: 01 - Rap wa Kan no Tamashii da! Muri wo Toushite Douri wo Kettobasu!.flac Size: 22770273 Hash: E08476F78A679D3253BD6D0473BF3399 Accuracy: -m0 Conclusion: CDDA 100% Signature: E52CECFE28FCB801F3A5DC5FD81C90B358B94A08FILE: 21 - Omae no XXX de Ten wo Tsuke!.flac Size: 25916633 Hash: 923E0FD82FEEB8F4991CC9DA2139ABE0 Accuracy: -m0 Conclusion: CDDA 100% Signature: 5479EA0854755357CCAF76FD41F3DDD3BA5B46FBFILE: 20 - Omae no XXX de....flac Size: 4326483 Hash: 71C2B60AECF229FF1BF4E2C6AD4D1F7A Accuracy: -m0 Conclusion: CDDA 100% Signature: F9E1FBFE192364512FB7CF8AF4272DB29228E68CFILE: 19 - ''Libera me'' from hell.flac Size: 32826179 Hash: 35AD9FF5C6809E5A24E299F690B855CF Accuracy: -m0 Conclusion: CDDA 100% Signature: 289E2599347229381D9FA16E9E11752C409D0DECFILE: 18 - Douda! Ore no Trumpet wa Sugoi Darou!!.flac Size: 23997894 Hash: C1EB4AEF07F51C2B6A3BEECDD00A1D2D Accuracy: -m0 Conclusion: CDDA 100% Signature: C50EB220CE01A268C7E79874B74158F1E441A90CFILE: 17 - The Blue Monday Electrical Parade.flac Size: 33535519 Hash: BCB069FE3201180B4D618FD895B50944 Accuracy: -m0 Conclusion: CDDA 100% Signature: ECE6D53C14405AA7EB5A08152DF127FAEB7FD2F7FILE: 16 - Rap wa Kan no Tamashii... Datta... yo na....flac Size: 16134470 Hash: 3E93B38167BA1BBD47675E4E0504F586 Accuracy: -m0 Conclusion: CDDA 100% Signature: 7AA4EF6BC37F49F565192232F7A7C5E29DAA092DFILE: 15 - Love Conservative.flac Size: 21421511 Hash: BF6787D9848E4044E3C16742A9948C97 Accuracy: -m0 Conclusion: CDDA 100% Signature: B9D023BA78EEF6E3EC8B86DE426E299CFC5DD682FILE: 14 - Mawatte Mawatte Mawatte Mawatte Tetete....flac Size: 32476757 Hash: 1F7E29C55D9CAB61E989286DCEB235CA Accuracy: -m0 Conclusion: CDDA 100% Signature: 93B62D97CF0665A9A11B574C1A413E70F3F5E84AFILE: 13 - Gatta Nante Kuso Kurae.flac Size: 25629547 Hash: 459A0C55EDA42A2BDF8ACB0A2177F1FC Accuracy: -m0 Conclusion: CDDA 99% Signature: 6A5A2D6DBE066FAB66903B56B84830A857D9F802
Exact Audio Copy V1.3 from 2. September 2016

EAC extraction logfile from 7. January 2017, 22:33

- / Gurren Lagann - Character Song CD

Used drive : PLEXTOR CD-R PREMIUM2 Adapter: 1 ID: 0

Read mode : SecureUtilize accurate stream : YesDefeat audio cache : YesMake use of C2 pointers : No

Read offset correction : 30Overread into Lead-In and Lead-Out : YesFill up missing offset samples with silence : YesDelete leading and trailing silent blocks : NoNull samples used in CRC calculations : YesUsed interface : Native Win32 interface for Win NT & 2000Gap handling : Appended to previous track

Used output format : User Defined EncoderSelected bitrate : 1024 kBit/sQuality : HighAdd ID3 tag : NoCommand line compressor : C:\Program Files (x86)\Exact Audio Copy RIP\Flac\flac.exeAdditional command line options : -V -8 -T "Genre=%genre%" -T "Artist=%artist%" -T "Title=%title%" -T "Album=%albumtitle%" -T "Date=%year%" -T "Tracknumber=%tracknr%" -T "Comment=%comment%" %source%

TOC of the extracted CD

Track | Start | Length | Start sector | End sector --------------------------------------------------------- 1 | 0:00.00 | 4:11.09 | 0 | 18833 2 | 4:11.09 | 4:47.66 | 18834 | 40424 3 | 8:59.00 | 4:11.09 | 40425 | 59258 4 | 13:10.09 | 4:47.63 | 59259 | 80846 5 | 17:57.72 | 2:05.21 | 80847 | 90242 6 | 20:03.18 | 1:43.67 | 90243 | 98034

Track 1

Filename D:\Work\RIPs\01 - Break Through the Dream.wav

Pre-gap length 0:00:02.00

Peak level 100.0 % Extraction speed 8.9 X Track quality 100.0 % Test CRC 50BE55C9 Copy CRC 50BE55C9 Accurately ripped (confidence 1) [AB100C8B] (AR v2) Copy OK

Track 2

Filename D:\Work\RIPs\02 - Trust.wav

Peak level 100.0 % Extraction speed 9.9 X Track quality 100.0 % Test CRC 28D39D5E Copy CRC 28D39D5E Accurately ripped (confidence 1) [F182F867] (AR v2) Copy OK

Track 3

Filename D:\Work\RIPs\03 - Break Through the Dream (Karaoke).wav

Peak level 100.0 % Extraction speed 10.6 X Track quality 100.0 % Test CRC F61AE74A Copy CRC F61AE74A Accurately ripped (confidence 1) [FDE3C1B1] (AR v2) Copy OK

Track 4

Filename D:\Work\RIPs\04 - Trust (Karaoke).wav

Peak level 100.0 % Extraction speed 10.2 X Track quality 99.9 % Test CRC BA80D816 Copy CRC BA80D816 Accurately ripped (confidence 1) [7C4CC866] (AR v2) Copy OK

Track 5

Filename D:\Work\RIPs\05 - Break Through The Dream -Pop’N Music Edit-.wav

Peak level 100.0 % Extraction speed 11.1 X Track quality 100.0 % Test CRC 1C5AD5BD Copy CRC 1C5AD5BD Accurately ripped (confidence 1) [E9DE9D04] (AR v2) Copy OK

Track 6

Filename D:\Work\RIPs\06 - Trust -Dance Dance Revolution Mix-.wav

Peak level 100.0 % Extraction speed 8.4 X Track quality 99.8 % Test CRC CCDAE4AB Copy CRC CCDAE4AB Accurately ripped (confidence 1) [F48988DF] (AR v2) Copy OK

All tracks accurately ripped

No errors occurred

End of status report

---- CUETools DB Plugin V2.1.6

[CTDB TOCID: u4ZpDP0yP76x.gbekderV1z3IIA-] foundSubmit result: already submittedTrack | CTDB Status 1 | (4/4) Accurately ripped 2 | (4/4) Accurately ripped 3 | (4/4) Accurately ripped 4 | (4/4) Accurately ripped 5 | (4/4) Accurately ripped 6 | (4/4) Accurately ripped

==== Log checksum 86B2A71468D2B41436162DEA9F8E7A0F2F15DF85121A575FA29069D801719C34 ====
-----------------------

DON'T MODIFY THIS FILE

-----------------------

PERFORMER: auCDtect Task Manager, ver. 1.6.0 RC1 build 1.6.0.1Copyright (c) 2008-2010 y-soft. All rights reservedhttp://y-soft.org

ANALYZER: auCDtect: CD records authenticity detector, version 0.8.2Copyright (c) 2004 Oleg Berngardt. All rights reserved.Copyright (c) 2004 Alexander Djourik. All rights reserved.

FILE: 04 - Trust (Karaoke).flac Size: 35766074 Hash: D15D2A65DAB09E09CF759B9D4FEB8A8C Accuracy: -m0 Conclusion: CDDA 100% Signature: 3457637012FCA445BAC40EDB28262893858C1E11FILE: 03 - Break Through the Dream (Karaoke).flac Size: 29967320 Hash: 461AD26CEC50D807A02CC1B6D4F4F7CF Accuracy: -m0 Conclusion: CDDA 99% Signature: 0F89A20DDA5398E4799FFCA98D4AEA49C55D7652FILE: 02 - Trust.flac Size: 36459364 Hash: 27EF64308B2E81A1F38847FCD5F3275A Accuracy: -m0 Conclusion: CDDA 100% Signature: E84FF9A11029B2BC51F7787C0492091FF6DAC9EEFILE: 01 - Break Through the Dream.flac Size: 30650409 Hash: D6E2E06FD0B48C5450E91A68F7F1BF99 Accuracy: -m0 Conclusion: CDDA 99% Signature: F666FCC6724D161ED8AFDBCBADD889139E1F3F9CFILE: 06 - Trust -Dance Dance Revolution Mix-.flac Size: 13338403 Hash: 2D6F327C1443CEC47F100ED1F362A94B Accuracy: -m0 Conclusion: CDDA 100% Signature: 6B4A083D281559B4703486FCC8A0F510F09614D5FILE: 05 - Break Through The Dream -Pop’N Music Edit-.flac Size: 15066986 Hash: 0508A5F7AD86D23AB762CFB235FE6403 Accuracy: -m0 Conclusion: CDDA 100% Signature: 1BC35E87C2E897B8DD6E52372FC4BF8F99FBE088
Exact Audio Copy V1.3 from 2. September 2016

EAC extraction logfile from 29. January 2017, 20:56

- / Gurren Lagann - OST

Used drive : PLEXTOR CD-R PREMIUM2 Adapter: 1 ID: 2

Read mode : SecureUtilize accurate stream : YesDefeat audio cache : YesMake use of C2 pointers : No

Read offset correction : 30Overread into Lead-In and Lead-Out : YesFill up missing offset samples with silence : YesDelete leading and trailing silent blocks : NoNull samples used in CRC calculations : YesUsed interface : Native Win32 interface for Win NT & 2000Gap handling : Appended to previous track

Used output format : User Defined EncoderSelected bitrate : 1024 kBit/sQuality : HighAdd ID3 tag : NoCommand line compressor : C:\Program Files (x86)\Exact Audio Copy RIP\Flac\flac.exeAdditional command line options : -V -8 -T "Genre=%genre%" -T "Artist=%artist%" -T "Title=%title%" -T "Album=%albumtitle%" -T "Date=%year%" -T "Tracknumber=%tracknr%" -T "Comment=%comment%" %source%

TOC of the extracted CD

Track | Start | Length | Start sector | End sector --------------------------------------------------------- 1 | 0:00.00 | 1:19.39 | 0 | 5963 2 | 1:19.39 | 2:53.23 | 5964 | 18961 3 | 4:12.62 | 2:55.56 | 18962 | 32142 4 | 7:08.43 | 2:53.71 | 32143 | 45188 5 | 10:02.39 | 3:08.08 | 45189 | 59296 6 | 13:10.47 | 5:12.34 | 59297 | 82730 7 | 18:23.06 | 2:09.00 | 82731 | 92405 8 | 20:32.06 | 3:11.15 | 92406 | 106745 9 | 23:43.21 | 3:13.00 | 106746 | 121220 10 | 26:56.21 | 3:22.33 | 121221 | 136403 11 | 30:18.54 | 3:01.53 | 136404 | 150031 12 | 33:20.32 | 3:03.01 | 150032 | 163757 13 | 36:23.33 | 2:42.69 | 163758 | 175976 14 | 39:06.27 | 3:43.00 | 175977 | 192701 15 | 42:49.27 | 2:23.22 | 192702 | 203448 16 | 45:12.49 | 2:33.57 | 203449 | 214980 17 | 47:46.31 | 2:40.35 | 214981 | 227015 18 | 50:26.66 | 1:35.44 | 227016 | 234184 19 | 52:02.35 | 3:02.47 | 234185 | 247881 20 | 55:05.07 | 2:17.65 | 247882 | 258221 21 | 57:22.72 | 2:32.25 | 258222 | 269646 22 | 59:55.22 | 1:48.42 | 269647 | 277788 23 | 61:43.64 | 3:16.65 | 277789 | 292553 24 | 65:00.54 | 3:29.10 | 292554 | 308238 25 | 68:29.64 | 1:17.20 | 308239 | 314033 26 | 69:47.09 | 0:08.01 | 314034 | 314634

Track 1

Filename D:\Work\RIPs\01 - No Way! Only 1m20 to Do it.wav

Pre-gap length 0:00:02.00

Peak level 100.0 % Extraction speed 7.9 X Track quality 100.0 % Test CRC 95FEE7D6 Copy CRC 95FEE7D6 Accurately ripped (confidence 13) [2CF33139] (AR v2) Copy OK

Track 2

Filename D:\Work\RIPs\02 - Moles are Mere Moles, Right.wav

Peak level 62.1 % Extraction speed 7.3 X Track quality 99.9 % Test CRC 1D6D2C48 Copy CRC 1D6D2C48 Accurately ripped (confidence 13) [B7BD51E8] (AR v2) Copy OK

Track 3

Filename D:\Work\RIPs\03 - Rap is Man's Soul!.wav

Peak level 100.0 % Extraction speed 9.5 X Track quality 100.0 % Test CRC 627EE8AC Copy CRC 627EE8AC Accurately ripped (confidence 13) [6968EA26] (AR v2) Copy OK

Track 4

Filename D:\Work\RIPs\04 - Boota Dreams of Spirals.wav

Peak level 100.0 % Extraction speed 8.4 X Track quality 99.9 % Test CRC 4BE9B5B5 Copy CRC 4BE9B5B5 Accurately ripped (confidence 13) [C015C896] (AR v2) Copy OK

Track 5

Filename D:\Work\RIPs\05 - Boobs VS Boobs.wav

Peak level 100.0 % Extraction speed 10.5 X Track quality 100.0 % Test CRC 148DCEBC Copy CRC 148DCEBC Accurately ripped (confidence 13) [C4018541] (AR v2) Copy OK

Track 6

Filename D:\Work\RIPs\06 - Can't Stop Burning.wav

Peak level 100.0 % Extraction speed 11.4 X Track quality 100.0 % Test CRC 81CEB675 Copy CRC 81CEB675 Accurately ripped (confidence 13) [5528F5EB] (AR v2) Copy OK

Track 7

Filename D:\Work\RIPs\07 - Drill to Heaven with Your XXX!! ~First Time Outside ver.~.wav

Peak level 100.0 % Extraction speed 11.4 X Track quality 100.0 % Test CRC A27DC251 Copy CRC A27DC251 Accurately ripped (confidence 13) [300448BA] (AR v2) Copy OK

Track 8

Filename D:\Work\RIPs\08 - Elegy for Kamina's Father, Now a Skeleton.wav

Peak level 99.8 % Extraction speed 10.0 X Track quality 99.9 % Test CRC 8600655D Copy CRC 8600655D Accurately ripped (confidence 13) [C35B8FF3] (AR v2) Copy OK

Track 9

Filename D:\Work\RIPs\09 - The Wolf Has Come!!.wav

Peak level 100.0 % Extraction speed 12.4 X Track quality 100.0 % Test CRC DD1C5C0E Copy CRC DD1C5C0E Accurately ripped (confidence 13) [5B3E39C3] (AR v2) Copy OK

Track 10

Filename D:\Work\RIPs\10 - Nikopol.wav

Peak level 100.0 % Extraction speed 13.0 X Track quality 100.0 % Test CRC 3F6D15FF Copy CRC 3F6D15FF Accurately ripped (confidence 13) [4826932A] (AR v2) Copy OK

Track 11

Filename D:\Work\RIPs\11 - The Moon, the Stars and I.wav

Peak level 84.6 % Extraction speed 13.3 X Track quality 100.0 % Test CRC 9BBAF7EE Copy CRC 9BBAF7EE Accurately ripped (confidence 13) [1DDB6A66] (AR v2) Copy OK

Track 12

Filename D:\Work\RIPs\12 - Wow Three Sisters.wav

Peak level 100.0 % Extraction speed 13.5 X Track quality 100.0 % Test CRC DED5012D Copy CRC DED5012D Accurately ripped (confidence 13) [A56A1CF6] (AR v2) Copy OK

Track 13

Filename D:\Work\RIPs\13 - Ack! Skee!! Skeletonn!!!.wav

Peak level 100.0 % Extraction speed 13.8 X Track quality 100.0 % Test CRC 5A34F28E Copy CRC 5A34F28E Accurately ripped (confidence 13) [3F4A5D00] (AR v2) Copy OK

Track 14

Filename D:\Work\RIPs\14 - ll of You, Get Burned!!!.wav

Peak level 100.0 % Extraction speed 14.3 X Track quality 100.0 % Test CRC BF8B52F4 Copy CRC BF8B52F4 Accurately ripped (confidence 13) [6A44CF8B] (AR v2) Copy OK

Track 15

Filename D:\Work\RIPs\15 - Rise Your XXX!.wav

Peak level 100.0 % Extraction speed 14.1 X Track quality 100.0 % Test CRC 2D6F23BC Copy CRC 2D6F23BC Accurately ripped (confidence 13) [B3821EC9] (AR v2) Copy OK

Track 16

Filename D:\Work\RIPs\16 - He is so XXX.wav

Peak level 100.0 % Extraction speed 14.3 X Track quality 100.0 % Test CRC 7B00A1AD Copy CRC 7B00A1AD Accurately ripped (confidence 13) [CFF859C3] (AR v2) Copy OK

Track 17

Filename D:\Work\RIPs\17 - Lovely Boobs.wav

Peak level 87.6 % Extraction speed 14.7 X Track quality 100.0 % Test CRC 0BDE4F68 Copy CRC 0BDE4F68 Accurately ripped (confidence 13) [D49D0A24] (AR v2) Copy OK

Track 18

Filename D:\Work\RIPs\18 - Peeping Tom.wav

Peak level 100.0 % Extraction speed 10.3 X Track quality 99.8 % Test CRC C3BD06A9 Copy CRC C3BD06A9 Accurately ripped (confidence 13) [19D580B9] (AR v2) Copy OK

Track 19

Filename D:\Work\RIPs\19 - Peeping Tom.wav

Peak level 99.9 % Extraction speed 15.1 X Track quality 100.0 % Test CRC 5521D5CB Copy CRC 5521D5CB Accurately ripped (confidence 13) [60F01CD4] (AR v2) Copy OK

Track 20

Filename D:\Work\RIPs\20 - Lots of Old Men.wav

Peak level 97.1 % Extraction speed 14.7 X Track quality 100.0 % Test CRC B4315A4E Copy CRC B4315A4E Accurately ripped (confidence 13) [6F3B7613] (AR v2) Copy OK

Track 21

Filename D:\Work\RIPs\21 - Whaddya Believe in!.wav

Peak level 93.1 % Extraction speed 15.4 X Track quality 100.0 % Test CRC B5ACE60D Copy CRC B5ACE60D Accurately ripped (confidence 13) [3455025C] (AR v2) Copy OK

Track 22

Filename D:\Work\RIPs\22 - Whaddya Need to Prepare!!.wav

Peak level 100.0 % Extraction speed 11.5 X Track quality 99.9 % Test CRC 83097EE4 Copy CRC 83097EE4 Accurately ripped (confidence 13) [AF79F78C] (AR v2) Copy OK

Track 23

Filename D:\Work\RIPs\23 - To Hell with Your Combi (Insert Song No.1 Allegro in C minor K2564).wav

Peak level 100.0 % Extraction speed 13.5 X Track quality 99.9 % Test CRC EF73FE9F Copy CRC EF73FE9F Accurately ripped (confidence 13) [45601DA6] (AR v2) Copy OK

Track 24

Filename D:\Work\RIPs\24 - What the Heck is ''Moe''.wav

Peak level 94.4 % Extraction speed 14.1 X Track quality 99.9 % Test CRC F19DD169 Copy CRC F19DD169 Accurately ripped (confidence 13) [9C7CE6CC] (AR v2) Copy OK

Track 25

Filename D:\Work\RIPs\25 - With Your XXX....wav

Peak level 58.8 % Extraction speed 14.5 X Track quality 100.0 % Test CRC 33D7DEF5 Copy CRC 33D7DEF5 Accurately ripped (confidence 13) [4F5C64EB] (AR v2) Copy OK

Track 26

Filename D:\Work\RIPs\26 - Eye Catch I.wav

Peak level 100.0 % Extraction speed 5.0 X Track quality 100.0 % Test CRC DCD26699 Copy CRC DCD26699 Accurately ripped (confidence 13) [FF11E167] (AR v2) Copy OK

All tracks accurately ripped

No errors occurred

End of status report

---- CUETools DB Plugin V2.1.6

[CTDB TOCID: XV0RzkyfEx30XobX2RSg.oOAKGU-] foundSubmit result: XV0RzkyfEx30XobX2RSg.oOAKGU- has been confirmedTrack | CTDB Status 1 | (45/45) Accurately ripped 2 | (45/45) Accurately ripped 3 | (45/45) Accurately ripped 4 | (45/45) Accurately ripped 5 | (45/45) Accurately ripped 6 | (45/45) Accurately ripped 7 | (45/45) Accurately ripped 8 | (45/45) Accurately ripped 9 | (45/45) Accurately ripped 10 | (45/45) Accurately ripped 11 | (45/45) Accurately ripped 12 | (45/45) Accurately ripped 13 | (45/45) Accurately ripped 14 | (45/45) Accurately ripped 15 | (45/45) Accurately ripped 16 | (45/45) Accurately ripped 17 | (45/45) Accurately ripped 18 | (45/45) Accurately ripped 19 | (45/45) Accurately ripped 20 | (45/45) Accurately ripped 21 | (45/45) Accurately ripped 22 | (45/45) Accurately ripped 23 | (44/45) Accurately ripped 24 | (45/45) Accurately ripped 25 | (45/45) Accurately ripped 26 | (45/45) Accurately ripped

==== Log checksum 98646A772C143828FCCF06FE7D0DE8B243A165ED3413D202E0F51EEA6B94C00E ====
-----------------------

DON'T MODIFY THIS FILE

-----------------------

PERFORMER: auCDtect Task Manager, ver. 1.6.0 RC1 build 1.6.0.1Copyright (c) 2008-2010 y-soft. All rights reservedhttp://y-soft.org

ANALYZER: auCDtect: CD records authenticity detector, version 0.8.2Copyright (c) 2004 Oleg Berngardt. All rights reserved.Copyright (c) 2004 Alexander Djourik. All rights reserved.

FILE: 18 - Peeping Tom.flac Size: 8770177 Hash: 9CDA3BFFB98D06C3F67AE5C1FBA79CF4 Accuracy: -m0 Conclusion: CDDA 100% Signature: 33FEAE0BB5B2FD9AF932D6AE4241C13D7F45046EFILE: 17 - Lovely Boobs.flac Size: 13688881 Hash: 9CC316529518C6C4317921687BF061E0 Accuracy: -m0 Conclusion: CDDA 100% Signature: 33F55435225BBC48F921B3A5DCC6D68E75B49F13FILE: 16 - He is so XXX.flac Size: 12756122 Hash: 3B02F5282D5B958FEC4904B77CB07C59 Accuracy: -m0 Conclusion: CDDA 99% Signature: 8539AA920335172B75677BB5011E7A137B4CD4CBFILE: 15 - Rise Your XXX!.flac Size: 12924049 Hash: D86F070335E493C2607BFBAEA5DF550D Accuracy: -m0 Conclusion: CDDA 100% Signature: 642EE48DBDA04EDB8A24D08E456023954497BFADFILE: 14 - ll of You, Get Burned!!!.flac Size: 24099942 Hash: 8538BE59815D4D021EC7A18FFE758B8C Accuracy: -m0 Conclusion: CDDA 100% Signature: D68604556A7AA9E3294F951A2B3953FC35049393FILE: 13 - Ack! Skee!! Skeletonn!!!.flac Size: 14715932 Hash: AF070E7795E498249CA4A1F3E7FF2E1A Accuracy: -m0 Conclusion: CDDA 100% Signature: C9C1D8ACE1F40E5860F86ED875405922CF9D4555FILE: 12 - Wow Three Sisters.flac Size: 19566640 Hash: 997F67A11BAD12AC485823E8F3F2388E Accuracy: -m0 Conclusion: CDDA 100% Signature: 9F532284D330087F61625CE0C3839018676DA1AAFILE: 11 - The Moon, the Stars and I.flac Size: 16198246 Hash: 6A3630559AEDEF6D447EA72CECEF6149 Accuracy: -m0 Conclusion: CDDA 100% Signature: 32A9B7D4089DF37804D79D829FCF99696F70D0EBFILE: 10 - Nikopol.flac Size: 25970605 Hash: BE2E46F9A6013C78C487900D5A9EBB8E Accuracy: -m0 Conclusion: CDDA 99% Signature: D50033F0B354B05378B887EB20FCFFF0A544FE56FILE: 09 - The Wolf Has Come!!.flac Size: 21356781 Hash: 07A0A1774405AADEEE928777FAEE5D42 Accuracy: -m0 Conclusion: CDDA 100% Signature: 8A58FC2B81CDEFEE562764F5352E011E5D223C7CFILE: 08 - Elegy for Kamina's Father, Now a Skeleton.flac Size: 16227060 Hash: 80EDEB9DFCDBAC5656BBBD2E83CE4B35 Accuracy: -m0 Conclusion: CDDA 99% Signature: 25A92ED934ED88DBD606C082A204C5B6A9933A39FILE: 07 - Drill to Heaven with Your XXX!! ~First Time Outside ver.~.flac Size: 14147231 Hash: 25E23FACE96F4B8EA310F0624105A9BF Accuracy: -m0 Conclusion: CDDA 100% Signature: C95AE184C50B5B06FBD530BA24DF8CA2B1F9E0AEFILE: 06 - Can't Stop Burning.flac Size: 33980618 Hash: 6296C46EA7C01713D431793F54502936 Accuracy: -m0 Conclusion: CDDA 100% Signature: F6F446FFC4829AF7971B3D21A0EB85970A920DD3FILE: 05 - Boobs VS Boobs.flac Size: 22126481 Hash: F5176E6B07CCF0AFC195D671BD358323 Accuracy: -m0 Conclusion: CDDA 100% Signature: FD63BF222A1BB6AD93F28C5B2A78C0B6972B89CFFILE: 04 - Boota Dreams of Spirals.flac Size: 20047291 Hash: 526B6CF0226A4A141602BBB28EC5C075 Accuracy: -m0 Conclusion: CDDA 100% Signature: 377A14705819BA091514CCE417E6C4F7896E0949FILE: 03 - Rap is Man's Soul!.flac Size: 19315760 Hash: 92AC1BEA8791D59D297B78CC7BC8AFEE Accuracy: -m0 Conclusion: CDDA 99% Signature: 9EE46A999C58A5EBC5BFB1090B114293ACC501B4FILE: 02 - Moles are Mere Moles, Right.flac Size: 14391730 Hash: D795E82989A729E7BB3DC3ABD29FC7CF Accuracy: -m0 Conclusion: CDDA 100% Signature: 84F4B9FBB0D214E769E5EB70C5EE434EA2A14C1EFILE: 01 - No Way! Only 1m20 to Do it.flac Size: 7520969 Hash: C642FE208232E7E988B641AE10FA44F1 Accuracy: -m0 Conclusion: CDDA 100% Signature: 4602C86502569109F9D044116C40EC2CA32BDF90FILE: 26 - Eye Catch I.flac Size: 466070 Hash: A36FF60D6EBC3DDE2169EFF6B5B5F5C4 Accuracy: -m0 Conclusion: CDDA 100% Signature: E0FEB14182AFAD2EA8D3A7E1309813CF64240B05FILE: 25 - With Your XXX....flac Size: 4695632 Hash: 9D0CE00FB0637A653329250F4D3D5A16 Accuracy: -m0 Conclusion: CDDA 100% Signature: 43E6E4670931176A4A2553B20A5A8BE1ECF39A03FILE: 24 - What the Heck is ''Moe''.flac Size: 18068169 Hash: 66433A6EF8C0A37F8373A97042B72215 Accuracy: -m0 Conclusion: CDDA 100% Signature: E054640E409A9403585E81CB7994968B3B80B20BFILE: 23 - To Hell with Your Combi (Insert Song No.1 Allegro in C minor K2564).flac Size: 25628201 Hash: 8902A6799D3CEF31C82A149C55462E71 Accuracy: -m0 Conclusion: CDDA 100% Signature: DE03D438B414FA21D9BC995BEAC3E13E736ED1FBFILE: 22 - Whaddya Need to Prepare!!.flac Size: 10132593 Hash: D47A25CC7D38B43600CB935C5E6902ED Accuracy: -m0 Conclusion: CDDA 99% Signature: 7548A2A95CA6EE934E6DBBF9B0658A4C95182F59FILE: 21 - Whaddya Believe in!.flac Size: 12845217 Hash: E6A6D37923E0D0D43076DE840FB1045A Accuracy: -m0 Conclusion: CDDA 100% Signature: 603CF0C4FF57588729AC941AF8855FD30ACA3441FILE: 20 - Lots of Old Men.flac Size: 10292974 Hash: E69341A53FAD90A38E143618730CF9C8 Accuracy: -m0 Conclusion: CDDA 100% Signature: 46725BC4628D170A14DF9A09052AF24D5CF82E31FILE: 19 - Peeping Tom.flac Size: 16477734 Hash: 00B97E4AEB4382A95EB3B46B0C7FE656 Accuracy: -m0 Conclusion: CDDA 100% Signature: F120FD76C4ACBEF414AE1A831F46E0C852EDD180
Exact Audio Copy V1.3 from 2. September 2016

EAC extraction logfile from 8. January 2017, 19:54

- / Gurren Lagann - OST

Used drive : PLEXTOR CD-R PREMIUM2 Adapter: 1 ID: 0

Read mode : SecureUtilize accurate stream : YesDefeat audio cache : YesMake use of C2 pointers : No

Read offset correction : 30Overread into Lead-In and Lead-Out : YesFill up missing offset samples with silence : YesDelete leading and trailing silent blocks : NoNull samples used in CRC calculations : YesUsed interface : Native Win32 interface for Win NT & 2000Gap handling : Appended to previous track

Used output format : User Defined EncoderSelected bitrate : 1024 kBit/sQuality : HighAdd ID3 tag : NoCommand line compressor : C:\Program Files (x86)\Exact Audio Copy RIP\Flac\flac.exeAdditional command line options : -V -8 -T "Genre=%genre%" -T "Artist=%artist%" -T "Title=%title%" -T "Album=%albumtitle%" -T "Date=%year%" -T "Tracknumber=%tracknr%" -T "Comment=%comment%" %source%

TOC of the extracted CD

Track | Start | Length | Start sector | End sector --------------------------------------------------------- 1 | 0:00.00 | 0:06.43 | 0 | 492 2 | 0:06.43 | 2:47.07 | 493 | 13024 3 | 2:53.50 | 2:54.16 | 13025 | 26090 4 | 5:47.66 | 2:13.16 | 26091 | 36081 5 | 8:01.07 | 2:24.57 | 36082 | 46938 6 | 10:25.64 | 5:28.18 | 46939 | 71556 7 | 15:54.07 | 2:16.56 | 71557 | 81812 8 | 18:10.63 | 2:56.51 | 81813 | 95063 9 | 21:07.39 | 4:23.13 | 95064 | 114801 10 | 25:30.52 | 2:28.28 | 114802 | 125929 11 | 27:59.05 | 0:07.40 | 125930 | 126494 12 | 28:06.45 | 0:10.12 | 126495 | 127256 13 | 28:16.57 | 2:52.15 | 127257 | 140171 14 | 31:08.72 | 2:27.39 | 140172 | 151235 15 | 33:36.36 | 3:23.58 | 151236 | 166518 16 | 37:00.19 | 3:22.30 | 166519 | 181698 17 | 40:22.49 | 3:04.30 | 181699 | 195528 18 | 43:27.04 | 2:32.17 | 195529 | 206945 19 | 45:59.21 | 2:37.73 | 206946 | 218793 20 | 48:37.19 | 2:44.27 | 218794 | 231120 21 | 51:21.46 | 4:41.07 | 231121 | 252202 22 | 56:02.53 | 4:47.22 | 252203 | 273749 23 | 60:50.00 | 4:12.27 | 273750 | 292676 24 | 65:02.27 | 2:05.22 | 292677 | 302073 25 | 67:07.49 | 3:38.46 | 302074 | 318469

Track 1

Filename D:\Work\RIPs\01 - Eye Catch II.wav

Pre-gap length 0:00:02.00

Peak level 100.0 % Extraction speed 3.2 X Track quality 100.0 % Test CRC EBFA22CC Copy CRC EBFA22CC Accurately ripped (confidence 2) [9D7544B2] (AR v1) Copy OK

Track 2

Filename D:\Work\RIPs\02 - Rap is Man's Soul! (Short Start Edit).wav

Peak level 100.0 % Extraction speed 8.7 X Track quality 100.0 % Test CRC 66CEE029 Copy CRC 66CEE029 Accurately ripped (confidence 13) [F7B0F35B] (AR v2) Copy OK

Track 3

Filename D:\Work\RIPs\03 - How Tiring are Travels.wav

Peak level 94.2 % Extraction speed 9.2 X Track quality 100.0 % Test CRC 300981D6 Copy CRC 300981D6 Accurately ripped (confidence 13) [9A6EC1C3] (AR v2) Copy OK

Track 4

Filename D:\Work\RIPs\04 - The Heck is ''Moe''....wav

Peak level 71.3 % Extraction speed 9.4 X Track quality 100.0 % Test CRC 57EFA4B7 Copy CRC 57EFA4B7 Accurately ripped (confidence 13) [F1B06D73] (AR v2) Copy OK

Track 5

Filename D:\Work\RIPs\05 - Whaddya Think in the Dark!!.wav

Peak level 100.0 % Extraction speed 8.0 X Track quality 99.9 % Test CRC 0BC597EA Copy CRC 0BC597EA Accurately ripped (confidence 13) [B6A048C3] (AR v2) Copy OK

Track 6

Filename D:\Work\RIPs\06 - BafBaf! Burning Like that... Likable.wav

Peak level 100.0 % Extraction speed 11.1 X Track quality 100.0 % Test CRC 5F71473E Copy CRC 5F71473E Accurately ripped (confidence 13) [8C453AE4] (AR v2) Copy OK

Track 7

Filename D:\Work\RIPs\07 - Super Combi (Insert Song No.2 K3845 Progre).wav

Peak level 100.0 % Extraction speed 8.6 X Track quality 99.9 % Test CRC E5BA99CD Copy CRC E5BA99CD Accurately ripped (confidence 13) [28EF39E8] (AR v2) Copy OK

Track 8

Filename D:\Work\RIPs\08 - Spin, Spin, Spin, Spi!.wav

Peak level 100.0 % Extraction speed 11.7 X Track quality 100.0 % Test CRC 2576EAC1 Copy CRC 2576EAC1 Accurately ripped (confidence 13) [08F8803E] (AR v2) Copy OK

Track 9

Filename D:\Work\RIPs\09 - Spin, Spin, Spin, Spinnnn....wav

Peak level 100.0 % Extraction speed 12.5 X Track quality 100.0 % Test CRC D7DC2D3B Copy CRC D7DC2D3B Accurately ripped (confidence 13) [7FE4358D] (AR v2) Copy OK

Track 10

Filename D:\Work\RIPs\10 - Team Dai-Gurren Quit the Scorching Sands.wav

Peak level 100.0 % Extraction speed 10.2 X Track quality 99.9 % Test CRC CCAF67E2 Copy CRC CCAF67E2 Accurately ripped (confidence 13) [F1253443] (AR v2) Copy OK

Track 11

Filename D:\Work\RIPs\11 - Eye Catch III.wav

Peak level 100.0 % Extraction speed 4.4 X Track quality 100.0 % Test CRC 80D4D57C Copy CRC 80D4D57C Accurately ripped (confidence 13) [72C1E0D3] (AR v2) Copy OK

Track 12

Filename D:\Work\RIPs\12 - Eye Catch IV.wav

Peak level 100.0 % Extraction speed 5.7 X Track quality 100.0 % Test CRC 0954E6FA Copy CRC 0954E6FA Accurately ripped (confidence 13) [F6868479] (AR v2) Copy OK

Track 13

Filename D:\Work\RIPs\13 - Time is an Aged Traveler.wav

Peak level 100.0 % Extraction speed 13.0 X Track quality 100.0 % Test CRC 677D5E2D Copy CRC 677D5E2D Accurately ripped (confidence 13) [351645B3] (AR v2) Copy OK

Track 14

Filename D:\Work\RIPs\14 - Adaimura's Decorator.wav

Peak level 97.3 % Extraction speed 13.1 X Track quality 100.0 % Test CRC 687FC4E4 Copy CRC 687FC4E4 Accurately ripped (confidence 13) [E4FDE536] (AR v2) Copy OK

Track 15

Filename D:\Work\RIPs\15 - Let's Settle with Glasses.wav

Peak level 100.0 % Extraction speed 13.8 X Track quality 100.0 % Test CRC B4A512D1 Copy CRC B4A512D1 Accurately ripped (confidence 13) [B2320415] (AR v2) Copy OK

Track 16

Filename D:\Work\RIPs\16 - How Great is My Trumpet, Yeah!!.wav

Peak level 100.0 % Extraction speed 14.3 X Track quality 100.0 % Test CRC 1FDD963F Copy CRC 1FDD963F Accurately ripped (confidence 13) [88EBD2B1] (AR v2) Copy OK

Track 17

Filename D:\Work\RIPs\17 - Rap is Man's Soul......Maybe...Dunno....wav

Peak level 100.0 % Extraction speed 14.4 X Track quality 100.0 % Test CRC 1EC20A7F Copy CRC 1EC20A7F Accurately ripped (confidence 13) [3A4AAE5F] (AR v2) Copy OK

Track 18

Filename D:\Work\RIPs\18 - Smaterring of Resort Life.wav

Peak level 99.9 % Extraction speed 14.4 X Track quality 100.0 % Test CRC 311F158F Copy CRC 311F158F Accurately ripped (confidence 13) [E7E5435F] (AR v2) Copy OK

Track 19

Filename D:\Work\RIPs\19 - Poison Prison.wav

Peak level 100.0 % Extraction speed 14.6 X Track quality 100.0 % Test CRC FB245C27 Copy CRC FB245C27 Accurately ripped (confidence 13) [3D7F5AAF] (AR v2) Copy OK

Track 20

Filename D:\Work\RIPs\20 - Someone Blames Someone.wav

Peak level 100.0 % Extraction speed 12.4 X Track quality 99.9 % Test CRC EBBE0948 Copy CRC EBBE0948 Accurately ripped (confidence 13) [F6ACCED7] (AR v2) Copy OK

Track 21

Filename D:\Work\RIPs\21 - The Blue monday e''r''ectrical parade.wav

Peak level 100.0 % Extraction speed 16.1 X Track quality 100.0 % Test CRC F792FE55 Copy CRC F792FE55 Accurately ripped (confidence 13) [E018AD82] (AR v2) Copy OK

Track 22

Filename D:\Work\RIPs\22 - ''Libera me'' from hell.wav

Peak level 100.0 % Extraction speed 16.5 X Track quality 100.0 % Test CRC 8BDE3F71 Copy CRC 8BDE3F71 Accurately ripped (confidence 13) [7EC82645] (AR v2) Copy OK

Track 23

Filename D:\Work\RIPs\23 - Love Conservative.wav

Peak level 99.7 % Extraction speed 16.8 X Track quality 100.0 % Test CRC 38EDF8D8 Copy CRC 38EDF8D8 Accurately ripped (confidence 13) [374901DC] (AR v2) Copy OK

Track 24

Filename D:\Work\RIPs\24 - To Heaven with Your XXX....wav

Peak level 75.6 % Extraction speed 15.7 X Track quality 100.0 % Test CRC FB993D96 Copy CRC FB993D96 Accurately ripped (confidence 13) [09AE9E28] (AR v2) Copy OK

Track 25

Filename D:\Work\RIPs\25 - Drill to Heaven with Your XXX!!.wav

Peak level 100.0 % Extraction speed 17.0 X Track quality 100.0 % Test CRC B2B938E8 Copy CRC B2B938E8 Accurately ripped (confidence 13) [9C625CBF] (AR v2) Copy OK

All tracks accurately ripped

No errors occurred

End of status report

---- CUETools DB Plugin V2.1.6

[CTDB TOCID: LuAmPQO3gf4V6nClCgO9P5ARVYU-] foundSubmit result: LuAmPQO3gf4V6nClCgO9P5ARVYU- has been confirmedTrack | CTDB Status 1 | (42/42) Accurately ripped 2 | (42/42) Accurately ripped 3 | (42/42) Accurately ripped 4 | (42/42) Accurately ripped 5 | (42/42) Accurately ripped 6 | (42/42) Accurately ripped 7 | (42/42) Accurately ripped 8 | (42/42) Accurately ripped 9 | (42/42) Accurately ripped 10 | (42/42) Accurately ripped 11 | (42/42) Accurately ripped 12 | (42/42) Accurately ripped 13 | (42/42) Accurately ripped 14 | (42/42) Accurately ripped 15 | (42/42) Accurately ripped 16 | (42/42) Accurately ripped 17 | (42/42) Accurately ripped 18 | (42/42) Accurately ripped 19 | (42/42) Accurately ripped 20 | (42/42) Accurately ripped 21 | (42/42) Accurately ripped 22 | (41/42) Accurately ripped 23 | (41/42) Accurately ripped 24 | (42/42) Accurately ripped 25 | (42/42) Accurately ripped

==== Log checksum 789B189B48E04D9768ECD84C96825AF7E1F84A36499860B60BED9B680E5AD787 ====
-----------------------

DON'T MODIFY THIS FILE

-----------------------

PERFORMER: auCDtect Task Manager, ver. 1.6.0 RC1 build 1.6.0.1Copyright (c) 2008-2010 y-soft. All rights reservedhttp://y-soft.org

ANALYZER: auCDtect: CD records authenticity detector, version 0.8.2Copyright (c) 2004 Oleg Berngardt. All rights reserved.Copyright (c) 2004 Alexander Djourik. All rights reserved.

FILE: 18 - Smaterring of Resort Life.flac Size: 13650406 Hash: 0404D5487CAB69B0D9B7042BA2099775 Accuracy: -m0 Conclusion: CDDA 100% Signature: CBD1B0C78DB83690C0C0B60CFCD0984E78BD2656FILE: 19 - Poison Prison.flac Size: 14717640 Hash: BE6BD6CCF59CB265D5726EDE00704784 Accuracy: -m0 Conclusion: CDDA 100% Signature: E2B88E8E391FBA813B8096504A2F29AA954C5353FILE: 20 - Someone Blames Someone.flac Size: 14455980 Hash: 2EECB8873CE0576B8D9A3D656C1FC177 Accuracy: -m0 Conclusion: CDDA 100% Signature: 11F964C415226252AB182BCB23A665D06A19850EFILE: 21 - The Blue monday e''r''ectrical parade.flac Size: 33519861 Hash: 5E9C9F5575E57E22DA5526CC8F22DFB6 Accuracy: -m0 Conclusion: CDDA 100% Signature: B466CFDECFBDD61FF75B6915269603A2C2B35352FILE: 22 - ''Libera me'' from hell.flac Size: 32805831 Hash: 6528A78C3407C6178235DC665CED160D Accuracy: -m0 Conclusion: CDDA 100% Signature: FC34DBA22BDE3897535D9C0B94FF1FA417E9DEC6FILE: 23 - Love Conservative.flac Size: 21434167 Hash: 26D463F26D598A01CA18DF08835AE875 Accuracy: -m0 Conclusion: CDDA 100% Signature: 30E418E3E669EC98C6DB6FBAAA793F8B79807D27FILE: 24 - To Heaven with Your XXX....flac Size: 10613919 Hash: 9C8FD2D8F0DE03CEFDB20DF350AAA591 Accuracy: -m0 Conclusion: CDDA 100% Signature: 97170038076F462CAA72DD75430FAC41B93BE93EFILE: 25 - Drill to Heaven with Your XXX!!.flac Size: 25902978 Hash: FB92E2CF71E38AD6733F0ACFBC26E283 Accuracy: -m0 Conclusion: CDDA 100% Signature: 8078D427312FAF8B9B76213054725D7DF16C3A34FILE: 01 - Eye Catch II.flac Size: 405327 Hash: 7369C2124314E9B02A9C68FA70F0344C Accuracy: -m0 Conclusion: CDDA 100% Signature: C5E14EDD81C2BF67883378540620C7C2D358AE5CFILE: 02 - Rap is Man's Soul! (Short Start Edit).flac Size: 19987211 Hash: 2FA2F5243749C0406D6086B8F23F5513 Accuracy: -m0 Conclusion: CDDA 100% Signature: AD5A8F56113282F013D5EEAA07937A274EB35F75FILE: 03 - How Tiring are Travels.flac Size: 15439199 Hash: A9FF2B9F0BA4B7177403DC4DA1FDC76C Accuracy: -m0 Conclusion: CDDA 100% Signature: 5168E7FB3F0FBE661D667F7F83579FA5D467698AFILE: 04 - The Heck is ''Moe''....flac Size: 9737615 Hash: 1B5D191EBF16AECF814458A25867996E Accuracy: -m0 Conclusion: CDDA 100% Signature: DA6241A8123025E9A22AC3251B9FA8565170A589FILE: 05 - Whaddya Think in the Dark!!.flac Size: 11328435 Hash: F7F738EF2A008DDB256438C13B63F369 Accuracy: -m0 Conclusion: CDDA 100% Signature: 1CF7282DC4D41A7684B9D461B5EA6E5FE5B3C1A2FILE: 06 - BafBaf! Burning Like that... Likable.flac Size: 35357906 Hash: 1D9633338938DB4EE22E611EA74D1812 Accuracy: -m0 Conclusion: CDDA 99% Signature: 75EADE081333C53EBC2BA5049429BEF51919D2B1FILE: 07 - Super Combi (Insert Song No.2 K3845 Progre).flac Size: 16505621 Hash: 83F48CDEF7925BB8D3035379A973C5F2 Accuracy: -m0 Conclusion: CDDA 100% Signature: 1A04CE38AE7E5F3507C1F107207B459A0AB85587FILE: 08 - Spin, Spin, Spin, Spi!.flac Size: 21567521 Hash: 8A1312399C03E4934ED6ABFABF03B0A3 Accuracy: -m0 Conclusion: CDDA 100% Signature: A7F4D7BB281F8BE0B0A70A6E03F73F17C54FA7ADFILE: 09 - Spin, Spin, Spin, Spinnnn....flac Size: 32476157 Hash: 0D5F15B09464014F54A4BBE5B13BB992 Accuracy: -m0 Conclusion: CDDA 100% Signature: 833C77994C7657D82E5173260D319979F0CB01E4FILE: 10 - Team Dai-Gurren Quit the Scorching Sands.flac Size: 14761017 Hash: 1D1E06AC3C3C2440B5EFC09A477C8220 Accuracy: -m0 Conclusion: CDDA 100% Signature: DEBD427027DE66D2CBFBC5155A7C853F32950027FILE: 11 - Eye Catch III.flac Size: 516492 Hash: D71B1D7D4A0CA42F914E9D81F7CFAE3A Accuracy: -m0 Conclusion: CDDA 100% Signature: 842F66C21377D92C6C50A72C90736D10B89D27D6FILE: 12 - Eye Catch IV.flac Size: 674007 Hash: 9D181135EC643E81D9D72FE8F582AD98 Accuracy: -m0 Conclusion: CDDA 100% Signature: D00D25C2343EA90AE34D747BE2D04DE2743003C0FILE: 13 - Time is an Aged Traveler.flac Size: 12758334 Hash: 8A0DE89421896DC965D1063CA1393891 Accuracy: -m0 Conclusion: CDDA 100% Signature: 47039D72ED5AD6EB4EABBFFA8FAB4497F7CB42F4FILE: 14 - Adaimura's Decorator.flac Size: 13235339 Hash: A6A5042699434D5940C148DD362E8BB7 Accuracy: -m0 Conclusion: CDDA 100% Signature: EB22F50ED3962EA3AECFA9136D386C95DAB1666CFILE: 15 - Let's Settle with Glasses.flac Size: 17440810 Hash: BA12BA37EAE42F247660B36682E268F6 Accuracy: -m0 Conclusion: CDDA 100% Signature: 9D90B6AB257C32B9FAD5980B0F494CFF59FFAEEAFILE: 16 - How Great is My Trumpet, Yeah!!.flac Size: 23999186 Hash: 5A9ACB0615FA816A002533DDF245A0CF Accuracy: -m0 Conclusion: CDDA 100% Signature: C7E4C84CB2AA1883CDE312B466EFB37184A8594DFILE: 17 - Rap is Man's Soul......Maybe...Dunno....flac Size: 16137372 Hash: 43D4E002693856DFD1B6CD28CBCE7DED Accuracy: -m0 Conclusion: CDDA 100% Signature: 0A8C8C113FF100F4A17FD03B85C90B598C984200
Exact Audio Copy V1.3 from 2. September 2016

EAC extraction logfile from 7. January 2017, 20:59

Marina Inoue / Gurren Lagann - Character Song CD

Used drive : PLEXTOR CD-R PREMIUM2 Adapter: 1 ID: 0

Read mode : SecureUtilize accurate stream : YesDefeat audio cache : YesMake use of C2 pointers : No

Read offset correction : 30Overread into Lead-In and Lead-Out : YesFill up missing offset samples with silence : YesDelete leading and trailing silent blocks : NoNull samples used in CRC calculations : YesUsed interface : Native Win32 interface for Win NT & 2000Gap handling : Appended to previous track

Used output format : User Defined EncoderSelected bitrate : 1024 kBit/sQuality : HighAdd ID3 tag : NoCommand line compressor : C:\Program Files (x86)\Exact Audio Copy RIP\Flac\flac.exeAdditional command line options : -V -8 -T "Genre=%genre%" -T "Artist=%artist%" -T "Title=%title%" -T "Album=%albumtitle%" -T "Date=%year%" -T "Tracknumber=%tracknr%" -T "Comment=%comment%" %source%

TOC of the extracted CD

Track | Start | Length | Start sector | End sector --------------------------------------------------------- 1 | 0:00.00 | 4:26.64 | 0 | 20013 2 | 4:26.64 | 4:26.65 | 20014 | 40028 3 | 8:53.54 | 3:43.60 | 40029 | 56813

Track 1

Filename D:\Work\RIPs\01 - S.T.A.R.S.wav

Pre-gap length 0:00:02.00

Peak level 100.0 % Extraction speed 9.0 X Track quality 100.0 % Test CRC 88A23E8C Copy CRC 88A23E8C Accurately ripped (confidence 1) [30681869] (AR v2) Copy OK

Track 2

Filename D:\Work\RIPs\02 - S.T.A.R.S -Instrumental-.wav

Peak level 100.0 % Extraction speed 9.9 X Track quality 100.0 % Test CRC C11385DD Copy CRC C11385DD Accurately ripped (confidence 1) [A21BFF01] (AR v2) Copy OK

Track 3

Filename D:\Work\RIPs\03 - S.T.A.R.S -Kirameki Mix-.wav

Peak level 100.0 % Extraction speed 10.4 X Track quality 100.0 % Test CRC 2B04C417 Copy CRC 2B04C417 Accurately ripped (confidence 1) [FE2B89EC] (AR v2) Copy OK

All tracks accurately ripped

No errors occurred

End of status report

---- CUETools DB Plugin V2.1.6

[CTDB TOCID: ocsmatL6Cl7ePecZY_k.Wefgmy0-] foundSubmit result: already submittedTrack | CTDB Status 1 | (3/3) Accurately ripped 2 | (3/3) Accurately ripped 3 | (3/3) Accurately ripped

==== Log checksum E2C4D863A9029BA984D23B6664C090776B4BBDA251850ADEA654DEDC7E7147A3 ====
-----------------------

DON'T MODIFY THIS FILE

-----------------------

PERFORMER: auCDtect Task Manager, ver. 1.6.0 RC1 build 1.6.0.1Copyright (c) 2008-2010 y-soft. All rights reservedhttp://y-soft.org

ANALYZER: auCDtect: CD records authenticity detector, version 0.8.2Copyright (c) 2004 Oleg Berngardt. All rights reserved.Copyright (c) 2004 Alexander Djourik. All rights reserved.

FILE: 01 - S.T.A.R.S.flac Size: 37531269 Hash: D4F53A5DD88A31A25B43DD29863557C0 Accuracy: -m0 Conclusion: CDDA 99% Signature: 9F8710D38FB96E4694E0012BBD330B527FB39A9EFILE: 03 - S.T.A.R.S -Kirameki Mix-.flac Size: 30814680 Hash: DAD3A8362BEF2303F98D05ED3B9ECC45 Accuracy: -m0 Conclusion: CDDA 100% Signature: 6C10DCA3B22BA18620E66430073E2B8EE1B736EBFILE: 02 - S.T.A.R.S -Instrumental-.flac Size: 36842425 Hash: 4987BBCD26F13F72363D3CA9C816653D Accuracy: -m0 Conclusion: CDDA 99% Signature: 306FD21A795B2F23B39967C4116D104112AABC88
Exact Audio Copy V1.3 from 2. September 2016

EAC extraction logfile from 24. December 2016, 23:11

- / Gurren Lagann - Movie OST Plus

Used drive : PLEXTOR CD-R PREMIUM2 Adapter: 1 ID: 0

Read mode : SecureUtilize accurate stream : YesDefeat audio cache : YesMake use of C2 pointers : No

Read offset correction : 30Overread into Lead-In and Lead-Out : YesFill up missing offset samples with silence : YesDelete leading and trailing silent blocks : NoNull samples used in CRC calculations : YesUsed interface : Native Win32 interface for Win NT & 2000Gap handling : Appended to previous track

Used output format : User Defined EncoderSelected bitrate : 1024 kBit/sQuality : HighAdd ID3 tag : NoCommand line compressor : C:\Program Files (x86)\Exact Audio Copy RIP\Flac\flac.exeAdditional command line options : -V -8 -T "Genre=%genre%" -T "Artist=%artist%" -T "Title=%title%" -T "Album=%albumtitle%" -T "Date=%year%" -T "Tracknumber=%tracknr%" -T "Comment=%comment%" %source%

TOC of the extracted CD

Track | Start | Length | Start sector | End sector --------------------------------------------------------- 1 | 0:00.00 | 3:34.28 | 0 | 16077 2 | 3:34.28 | 2:09.65 | 16078 | 25817 3 | 5:44.18 | 5:14.10 | 25818 | 49377

Track 1

Filename D:\Work\RIPs\01 - Please, Burn in Silence ~ Our Father Who Art in Heaven.wav

Pre-gap length 0:00:02.00

Peak level 100.0 % Extraction speed 8.8 X Track quality 100.0 % Test CRC BBE6E925 Copy CRC BBE6E925 Accurately ripped (confidence 6) [37B1C455] (AR v2) Copy OK

Track 2

Filename D:\Work\RIPs\02 - One Promise, Only One.wav

Peak level 100.0 % Extraction speed 9.1 X Track quality 100.0 % Test CRC 71B71518 Copy CRC 71B71518 Accurately ripped (confidence 6) [B0B63392] (AR v2) Copy OK

Track 3

Filename D:\Work\RIPs\03 - My XXX is Cosmic.wav

Peak level 100.0 % Extraction speed 10.2 X Track quality 100.0 % Test CRC F28A5611 Copy CRC F28A5611 Accurately ripped (confidence 6) [98512705] (AR v2) Copy OK

All tracks accurately ripped

No errors occurred

End of status report

---- CUETools DB Plugin V2.1.6

[CTDB TOCID: yP43WYiYiuLWIGauhDglHLBm1u0-] foundSubmit result: already submittedTrack | CTDB Status 1 | (6/6) Accurately ripped 2 | (6/6) Accurately ripped 3 | (6/6) Accurately ripped

==== Log checksum 73B7ABBB24D3E39E235D315715109D9C79024F60318B08118B73833636A6EE8F ====
-----------------------

DON'T MODIFY THIS FILE

-----------------------

PERFORMER: auCDtect Task Manager, ver. 1.6.0 RC1 build 1.6.0.1Copyright (c) 2008-2010 y-soft. All rights reservedhttp://y-soft.org

ANALYZER: auCDtect: CD records authenticity detector, version 0.8.2Copyright (c) 2004 Oleg Berngardt. All rights reserved.Copyright (c) 2004 Alexander Djourik. All rights reserved.

FILE: 01 - Please, Burn in Silence ~ Our Father Who Art in Heaven.flac Size: 23973221 Hash: 925D52487958A9221885104B790ACCAF Accuracy: -m0 Conclusion: CDDA 100% Signature: 8F900B437C8041632D86A2D008DA0FBF2DC7A8D0FILE: 03 - My XXX is Cosmic.flac Size: 34242393 Hash: 48BF82048110AFC230BF45B73F5E0E72 Accuracy: -m0 Conclusion: CDDA 100% Signature: BA22B7724CDD9743A79110852A7207B6E3BE993CFILE: 02 - One Promise, Only One.flac Size: 10946931 Hash: AD9244AEBD4402BA8921A7F3FF43E54E Accuracy: -m0 Conclusion: CDDA 100% Signature: 0BDE24103F45B77F53DA925490CF3F9C64891DC2
Exact Audio Copy V1.3 from 2. September 2016

EAC extraction logfile from 16. January 2017, 19:37

Shoko Nakagawa / Gurren Lagann - OP

Used drive : PLEXTOR CD-R PREMIUM2 Adapter: 1 ID: 0

Read mode : SecureUtilize accurate stream : YesDefeat audio cache : YesMake use of C2 pointers : No

Read offset correction : 30Overread into Lead-In and Lead-Out : YesFill up missing offset samples with silence : YesDelete leading and trailing silent blocks : NoNull samples used in CRC calculations : YesUsed interface : Native Win32 interface for Win NT & 2000Gap handling : Appended to previous track

Used output format : User Defined EncoderSelected bitrate : 1024 kBit/sQuality : HighAdd ID3 tag : NoCommand line compressor : C:\Program Files (x86)\Exact Audio Copy RIP\Flac\flac.exeAdditional command line options : -V -8 -T "Genre=%genre%" -T "Artist=%artist%" -T "Title=%title%" -T "Album=%albumtitle%" -T "Date=%year%" -T "Tracknumber=%tracknr%" -T "Comment=%comment%" %source%

TOC of the extracted CD

Track | Start | Length | Start sector | End sector --------------------------------------------------------- 1 | 0:00.00 | 4:13.57 | 0 | 19031 2 | 4:13.57 | 3:30.16 | 19032 | 34797 3 | 7:43.73 | 4:01.18 | 34798 | 52890 4 | 11:45.16 | 4:11.55 | 52891 | 71770

Track 1

Filename D:\Work\RIPs\01 - Sorairo Days.wav

Pre-gap length 0:00:02.00

Peak level 99.9 % Extraction speed 9.0 X Track quality 100.0 % Test CRC A8EEC843 Copy CRC A8EEC843 Accurately ripped (confidence 7) [257529DC] (AR v2) Copy OK

Track 2

Filename D:\Work\RIPs\02 - happily ever after.wav

Peak level 99.9 % Extraction speed 9.6 X Track quality 100.0 % Test CRC 676D1C03 Copy CRC 676D1C03 Accurately ripped (confidence 7) [478494E9] (AR v2) Copy OK

Track 3

Filename D:\Work\RIPs\03 - Mitsubachi no Sasayaki.wav

Peak level 99.9 % Extraction speed 10.5 X Track quality 100.0 % Test CRC 2401E76C Copy CRC 2401E76C Accurately ripped (confidence 7) [AA6B82A0] (AR v2) Copy OK

Track 4

Filename D:\Work\RIPs\04 - Sorairo Days -Instrumental-.wav

Peak level 99.9 % Extraction speed 9.7 X Track quality 100.0 % Test CRC 2CE82F5E Copy CRC 2CE82F5E Accurately ripped (confidence 6) [55FF5172] (AR v2) Copy OK

All tracks accurately ripped

No errors occurred

End of status report

---- CUETools DB Plugin V2.1.6

[CTDB TOCID: UKeVByhcGba9Z0gwoi1.1PxeNW0-] foundSubmit result: UKeVByhcGba9Z0gwoi1.1PxeNW0- has been confirmedTrack | CTDB Status 1 | (11/11) Accurately ripped 2 | (11/11) Accurately ripped 3 | (11/11) Accurately ripped 4 | (11/11) Accurately ripped

==== Log checksum 377E418588E2EF15703300986A4E2F86779D91D3C3F82C44352B08DC13B93653 ====
-----------------------

DON'T MODIFY THIS FILE

-----------------------

PERFORMER: auCDtect Task Manager, ver. 1.6.0 RC1 build 1.6.0.1Copyright (c) 2008-2010 y-soft. All rights reservedhttp://y-soft.org

ANALYZER: auCDtect: CD records authenticity detector, version 0.8.2Copyright (c) 2004 Oleg Berngardt. All rights reserved.Copyright (c) 2004 Alexander Djourik. All rights reserved.

FILE: 01 - Sorairo Days.flac Size: 34716198 Hash: FAD7CBAB2818A05654B8EBDE9E72090F Accuracy: -m0 Conclusion: CDDA 100% Signature: A874ECFD25280F4FC48187772160CEC120643EC5FILE: 04 - Sorairo Days -Instrumental-.flac Size: 34241656 Hash: 7F562660EE584D5A3F1FC84F6AB6DC7D Accuracy: -m0 Conclusion: CDDA 100% Signature: 8647EF2597845F77E638145B183DBFDDA932B2E1FILE: 03 - Mitsubachi no Sasayaki.flac Size: 32717133 Hash: AA9BDD7731617A8AB02C54CF304C6161 Accuracy: -m0 Conclusion: CDDA 99% Signature: 0F7BD6CCA8D731BC86C06C6FFD1A84092F9CCC13FILE: 02 - happily ever after.flac Size: 27457629 Hash: F0D2BB5F003A98FAD637A4CC3FA92035 Accuracy: -m0 Conclusion: CDDA 100% Signature: A11A4D32DED1AFBAA2E359C2F3EC7D37CAC30FC4
[spoiler="2007 - OP [LE]"]
Exact Audio Copy V1.3 from 2. September 2016

EAC extraction logfile from 7. January 2017, 23:11

Shoko Nakagawa / Gurren Lagann - OP

Used drive : PLEXTOR CD-R PREMIUM2 Adapter: 1 ID: 0

Read mode : SecureUtilize accurate stream : YesDefeat audio cache : YesMake use of C2 pointers : No

Read offset correction : 30Overread into Lead-In and Lead-Out : YesFill up missing offset samples with silence : YesDelete leading and trailing silent blocks : NoNull samples used in CRC calculations : YesUsed interface : Native Win32 interface for Win NT & 2000Gap handling : Appended to previous track

Used output format : User Defined EncoderSelected bitrate : 1024 kBit/sQuality : HighAdd ID3 tag : NoCommand line compressor : C:\Program Files (x86)\Exact Audio Copy RIP\Flac\flac.exeAdditional command line options : -V -8 -T "Genre=%genre%" -T "Artist=%artist%" -T "Title=%title%" -T "Album=%albumtitle%" -T "Date=%year%" -T "Tracknumber=%tracknr%" -T "Comment=%comment%" %source%

TOC of the extracted CD

Track | Start | Length | Start sector | End sector --------------------------------------------------------- 1 | 0:00.00 | 4:13.57 | 0 | 19031 2 | 4:13.57 | 3:30.16 | 19032 | 34797 3 | 7:43.73 | 1:33.38 | 34798 | 41810 4 | 9:17.36 | 1:33.34 | 41811 | 48819

Track 1

Filename D:\Work\RIPs\01 - Sorairo Days (Sky Blue Days).wav

Pre-gap length 0:00:02.00

Peak level 99.9 % Extraction speed 9.0 X Track quality 100.0 % Test CRC 08BE7685 Copy CRC 08BE7685 Accurately ripped (confidence 4) [A824DA6C] (AR v2) Copy OK

Track 2

Filename D:\Work\RIPs\02 - Happily Ever After.wav

Peak level 99.9 % Extraction speed 9.6 X Track quality 100.0 % Test CRC 0A7DC9BE Copy CRC 0A7DC9BE Accurately ripped (confidence 4) [B623F616] (AR v2) Copy OK

Track 3

Filename D:\Work\RIPs\03 - Sorairo Days -of Construction-.wav

Peak level 99.9 % Extraction speed 9.3 X Track quality 100.0 % Test CRC 1EF46219 Copy CRC 1EF46219 Accurately ripped (confidence 5) [0F2F33C8] (AR v2) Copy OK

Track 4

Filename D:\Work\RIPs\04 - Sorairo Days -of Realization-.wav

Peak level 99.9 % Extraction speed 9.6 X Track quality 100.0 % Test CRC FB47AC74 Copy CRC FB47AC74 Accurately ripped (confidence 5) [2FF741D2] (AR v2) Copy OK

All tracks accurately ripped

No errors occurred

End of status report

---- CUETools DB Plugin V2.1.6

[CTDB TOCID: KfXj.IBhmQMSMBjSmQPECpHcJ8k-] foundSubmit result: KfXj.IBhmQMSMBjSmQPECpHcJ8k- has been confirmedTrack | CTDB Status 1 | (16/16) Accurately ripped 2 | (16/16) Accurately ripped 3 | (16/16) Accurately ripped 4 | (16/16) Accurately ripped

==== Log checksum 132BCD38A81FE8A80AAADFBC8295A237BB80F30AF8162AA21C8EFB98B33466DB ====
-----------------------

DON'T MODIFY THIS FILE

-----------------------

PERFORMER: auCDtect Task Manager, ver. 1.6.0 RC1 build 1.6.0.1Copyright (c) 2008-2010 y-soft. All rights reservedhttp://y-soft.org

ANALYZER: auCDtect: CD records authenticity detector, version 0.8.2Copyright (c) 2004 Oleg Berngardt. All rights reserved.Copyright (c) 2004 Alexander Djourik. All rights reserved.

FILE: 03 - Sorairo Days -of Construction-.flac Size: 12179285 Hash: 3D06385BED7B3C1ABD9B1065D58ED39D Accuracy: -m0 Conclusion: CDDA 100% Signature: F1C4DD1FA2C5FDB731E877EAAA8137FFA28F2A83FILE: 04 - Sorairo Days -of Realization-.flac Size: 12171850 Hash: 3542E8DCC3D15AEF33316315FD0C93DB Accuracy: -m0 Conclusion: CDDA 99% Signature: 78E4FCB2F48D7938AD6E237324495A627E51220EFILE: 01 - Sorairo Days (Sky Blue Days).flac Size: 34716214 Hash: 821D1F2B18C12DCC96E5EF871BAEE78A Accuracy: -m0 Conclusion: CDDA 100% Signature: CFF5B01E74E87B0D79E7ECB250F592C1823CB197FILE: 02 - Happily Ever After.flac Size: 27457110 Hash: 38F67DAA0826F2CA8D7AA2EC73E45569 Accuracy: -m0 Conclusion: CDDA 100% Signature: 3C6086109B1C5B0DCC61F3AB2FD8C0C6DED23176
Exact Audio Copy V1.3 from 2. September 2016

EAC extraction logfile from 7. January 2017, 19:04

HIGH VOLTAGE / Gurren Lagann - ED

Used drive : PLEXTOR CD-R PREMIUM2 Adapter: 1 ID: 0

Read mode : SecureUtilize accurate stream : YesDefeat audio cache : YesMake use of C2 pointers : No

Read offset correction : 30Overread into Lead-In and Lead-Out : YesFill up missing offset samples with silence : YesDelete leading and trailing silent blocks : NoNull samples used in CRC calculations : YesUsed interface : Native Win32 interface for Win NT & 2000Gap handling : Appended to previous track

Used output format : User Defined EncoderSelected bitrate : 1024 kBit/sQuality : HighAdd ID3 tag : NoCommand line compressor : C:\Program Files (x86)\Exact Audio Copy RIP\Flac\flac.exeAdditional command line options : -V -8 -T "Genre=%genre%" -T "Artist=%artist%" -T "Title=%title%" -T "Album=%albumtitle%" -T "Date=%year%" -T "Tracknumber=%tracknr%" -T "Comment=%comment%" %source%

TOC of the extracted CD

Track | Start | Length | Start sector | End sector --------------------------------------------------------- 1 | 0:00.00 | 3:02.67 | 0 | 13716 2 | 3:02.67 | 3:26.10 | 13717 | 29176 3 | 6:29.02 | 3:00.20 | 29177 | 42696

Track 1

Filename D:\Work\RIPs\01 - Underground.wav

Pre-gap length 0:00:02.00

Peak level 95.9 % Extraction speed 7.4 X Track quality 99.9 % Test CRC A138A56B Copy CRC A138A56B Track not present in AccurateRip database Copy OK

Track 2

Filename D:\Work\RIPs\02 - Runner.wav

Peak level 98.1 % Extraction speed 9.4 X Track quality 100.0 % Test CRC A321D9F6 Copy CRC A321D9F6 Track not present in AccurateRip database Copy OK

Track 3

Filename D:\Work\RIPs\03 - Non-Verbal-Communication (Remaster).wav

Peak level 98.1 % Extraction speed 8.4 X Track quality 99.9 % Test CRC AFB92D9B Copy CRC AFB92D9B Track not present in AccurateRip database Copy OK

None of the tracks are present in the AccurateRip database

No errors occurred

End of status report

---- CUETools DB Plugin V2.1.6

[CTDB TOCID: 8ybr5FMUX9nm2nPrT_nU6CtCVG8-] disk not present in databaseSubmit result: 8ybr5FMUX9nm2nPrT_nU6CtCVG8- has been uploaded

==== Log checksum D44D2BED1F60D52E913F3579AEAEB10F887F0C4C449B365443872FB0876881CA ====
-----------------------

DON'T MODIFY THIS FILE

-----------------------

PERFORMER: auCDtect Task Manager, ver. 1.6.0 RC1 build 1.6.0.1Copyright (c) 2008-2010 y-soft. All rights reservedhttp://y-soft.org

ANALYZER: auCDtect: CD records authenticity detector, version 0.8.2Copyright (c) 2004 Oleg Berngardt. All rights reserved.Copyright (c) 2004 Alexander Djourik. All rights reserved.

FILE: 02 - Runner.flac Size: 27026012 Hash: C74877207606A7CD5E429E02FA88D194 Accuracy: -m0 Conclusion: CDDA 100% Signature: 3D8FBAF02CED3F21DCCB02ACAA96C4187F25A605FILE: 03 - Non-Verbal-Communication (Remaster).flac Size: 23874199 Hash: AE4CA25587B759BB885F674C91D31454 Accuracy: -m0 Conclusion: CDDA 100% Signature: FBBD013E3FAA30C78F95E9C2213C1547195C9F09FILE: 01 - Underground.flac Size: 22755175 Hash: AA167068A28303C4EDAC5D7F52556C71 Accuracy: -m0 Conclusion: CDDA 100% Signature: 5C1F77FEA1CF0EB9082E25599FC104551D7BF194
Exact Audio Copy V1.3 from 2. September 2016

EAC extraction logfile from 7. January 2017, 18:21

Afromania / Gurren Lagann - ED 2

Used drive : PLEXTOR CD-R PREMIUM2 Adapter: 1 ID: 0

Read mode : SecureUtilize accurate stream : YesDefeat audio cache : YesMake use of C2 pointers : No

Read offset correction : 30Overread into Lead-In and Lead-Out : YesFill up missing offset samples with silence : YesDelete leading and trailing silent blocks : NoNull samples used in CRC calculations : YesUsed interface : Native Win32 interface for Win NT & 2000Gap handling : Appended to previous track

Used output format : User Defined EncoderSelected bitrate : 1024 kBit/sQuality : HighAdd ID3 tag : NoCommand line compressor : C:\Program Files (x86)\Exact Audio Copy RIP\Flac\flac.exeAdditional command line options : -V -8 -T "Genre=%genre%" -T "Artist=%artist%" -T "Title=%title%" -T "Album=%albumtitle%" -T "Date=%year%" -T "Tracknumber=%tracknr%" -T "Comment=%comment%" %source%

TOC of the extracted CD

Track | Start | Length | Start sector | End sector --------------------------------------------------------- 1 | 0:00.00 | 2:37.74 | 0 | 11848 2 | 2:37.74 | 3:47.15 | 11849 | 28888 3 | 6:25.14 | 3:31.35 | 28889 | 44748

Track 1

Filename D:\Work\RIPs\01 - Minna no Peace.wav

Pre-gap length 0:00:02.00

Peak level 99.9 % Extraction speed 8.6 X Track quality 100.0 % Test CRC 0967D08F Copy CRC 0967D08F Track not present in AccurateRip database Copy OK

Track 2

Filename D:\Work\RIPs\02 - Taiyou.wav

Peak level 99.9 % Extraction speed 9.4 X Track quality 100.0 % Test CRC 18C5D835 Copy CRC 18C5D835 Track not present in AccurateRip database Copy OK

Track 3

Filename D:\Work\RIPs\03 - Hadakete (Single Ver.).wav

Peak level 99.9 % Extraction speed 8.6 X Track quality 99.9 % Test CRC 0B2D9EB1 Copy CRC 0B2D9EB1 Track not present in AccurateRip database Copy OK

None of the tracks are present in the AccurateRip database

No errors occurred

End of status report

---- CUETools DB Plugin V2.1.6

[CTDB TOCID: 4Jzv_fQCB_lzd7GlT1obGn7gCkw-] foundSubmit result: 4Jzv_fQCB_lzd7GlT1obGn7gCkw- has been confirmedTrack | CTDB Status 1 | (1/1) Accurately ripped 2 | (1/1) Accurately ripped 3 | (1/1) Accurately ripped

==== Log checksum E6F61960024A8ABF6355F25DACB0D529E546097A0467FCE0EEDB8EE15AED35E5 ====
-----------------------

DON'T MODIFY THIS FILE

-----------------------

PERFORMER: auCDtect Task Manager, ver. 1.6.0 RC1 build 1.6.0.1Copyright (c) 2008-2010 y-soft. All rights reservedhttp://y-soft.org

ANALYZER: auCDtect: CD records authenticity detector, version 0.8.2Copyright (c) 2004 Oleg Berngardt. All rights reserved.Copyright (c) 2004 Alexander Djourik. All rights reserved.

FILE: 02 - Taiyou.flac Size: 28290062 Hash: F9101942EF6BC35369C688625B442654 Accuracy: -m0 Conclusion: CDDA 100% Signature: 846E4D3EE46A551DE228DDAFD42C7EADA3FCBE4BFILE: 03 - Hadakete (Single Ver.).flac Size: 27756444 Hash: 4DE9A54C371141E2F59E95C18E72DE45 Accuracy: -m0 Conclusion: CDDA 100% Signature: 237EEFA1C81E3707D702300A3ACF2FA9F335F1EDFILE: 01 - Minna no Peace.flac Size: 18930900 Hash: 7627DE6AB1EC57CAD50200E24B82A389 Accuracy: -m0 Conclusion: CDDA 100% Signature: FA90B14F13B6641C7FEAE91421ECCC54BD4B9921
Exact Audio Copy V1.3 from 2. September 2016

EAC extraction logfile from 8. January 2017, 21:29

- / Gurren Lagann - Movie Single

Used drive : PLEXTOR CD-R PREMIUM2 Adapter: 1 ID: 0

Read mode : SecureUtilize accurate stream : YesDefeat audio cache : YesMake use of C2 pointers : No

Read offset correction : 30Overread into Lead-In and Lead-Out : YesFill up missing offset samples with silence : YesDelete leading and trailing silent blocks : NoNull samples used in CRC calculations : YesUsed interface : Native Win32 interface for Win NT & 2000Gap handling : Appended to previous track

Used output format : User Defined EncoderSelected bitrate : 1024 kBit/sQuality : HighAdd ID3 tag : NoCommand line compressor : C:\Program Files (x86)\Exact Audio Copy RIP\Flac\flac.exeAdditional command line options : -V -8 -T "Genre=%genre%" -T "Artist=%artist%" -T "Title=%title%" -T "Album=%albumtitle%" -T "Date=%year%" -T "Tracknumber=%tracknr%" -T "Comment=%comment%" %source%

TOC of the extracted CD

Track | Start | Length | Start sector | End sector --------------------------------------------------------- 1 | 0:00.00 | 4:49.50 | 0 | 21724 2 | 4:49.50 | 4:38.23 | 21725 | 42597 3 | 9:27.73 | 4:50.51 | 42598 | 64398 4 | 14:18.49 | 4:08.19 | 64399 | 83017

Track 1

Filename D:\Work\RIPs\01 - Tsuzuku Sekai.wav

Pre-gap length 0:00:02.00

Peak level 100.0 % Extraction speed 9.0 X Track quality 100.0 % Test CRC 0CD10EEA Copy CRC 0CD10EEA Accurately ripped (confidence 7) [857D9810] (AR v2) Copy OK

Track 2

Filename D:\Work\RIPs\02 - Through the Looking Glass.wav

Peak level 100.0 % Extraction speed 10.0 X Track quality 100.0 % Test CRC AE944052 Copy CRC AE944052 Accurately ripped (confidence 7) [2A457025] (AR v2) Copy OK

Track 3

Filename D:\Work\RIPs\03 - Tsuzuku Sekai -Instrumental-.wav

Peak level 100.0 % Extraction speed 10.8 X Track quality 100.0 % Test CRC C7DD1D06 Copy CRC C7DD1D06 Accurately ripped (confidence 7) [E2F9DF6F] (AR v2) Copy OK

Track 4

Filename D:\Work\RIPs\04 - Sorairo Days -Spiral Chiptune Mix-.wav

Peak level 100.0 % Extraction speed 7.4 X Track quality 99.8 % Test CRC 4660891B Copy CRC 4660891B Accurately ripped (confidence 7) [FEA7537B] (AR v2) Copy OK

All tracks accurately ripped

No errors occurred

End of status report

---- CUETools DB Plugin V2.1.6

[CTDB TOCID: v7RdZgvzNuI8aXhmIksGr0inEyw-] foundSubmit result: Время ожидания операции истеклоTrack | CTDB Status 1 | (16/16) Accurately ripped 2 | (16/16) Accurately ripped 3 | (16/16) Accurately ripped 4 | (16/16) Accurately ripped

==== Log checksum 9F19C32C7E2B0319237514A8CDA72EEDEAA4C2539CC328EE3D90D96A352839CC ====
-----------------------

DON'T MODIFY THIS FILE

-----------------------

PERFORMER: auCDtect Task Manager, ver. 1.6.0 RC1 build 1.6.0.1Copyright (c) 2008-2010 y-soft. All rights reservedhttp://y-soft.org

ANALYZER: auCDtect: CD records authenticity detector, version 0.8.2Copyright (c) 2004 Oleg Berngardt. All rights reserved.Copyright (c) 2004 Alexander Djourik. All rights reserved.

FILE: 03 - Tsuzuku Sekai -Instrumental-.flac Size: 37688292 Hash: 4C5B28463B3A64E0F22A49A0E2FFB001 Accuracy: -m0 Conclusion: CDDA 100% Signature: 843E7196306844BF56672E38C17EFFBEC7A94118FILE: 04 - Sorairo Days -Spiral Chiptune Mix-.flac Size: 24092786 Hash: B3CD55A0E2D0818650C8649F1D8F1032 Accuracy: -m0 Conclusion: CDDA 100% Signature: 15C6480DB9BE89FDEF4324FE7D66DC8F1F110E71FILE: 01 - Tsuzuku Sekai.flac Size: 38130770 Hash: F6E30DA6B442B54D7165D5B30AFED858 Accuracy: -m0 Conclusion: CDDA 100% Signature: 3B4920EE04898C4684CAA69A8BC53BEE0E16CD62FILE: 02 - Through the Looking Glass.flac Size: 35948301 Hash: 58349387A23E65E21D3D55B7B79D0DBF Accuracy: -m0 Conclusion: CDDA 100% Signature: 29378DCDCF1CC9BB37274BE18C144F2FF8B3FD23
Exact Audio Copy V1.3 from 2. September 2016

EAC extraction logfile from 24. December 2016, 18:35

Shoko Nakagawa / Gurren Lagann - Movie Single

Used drive : PLEXTOR CD-R PREMIUM2 Adapter: 1 ID: 0

Read mode : SecureUtilize accurate stream : YesDefeat audio cache : YesMake use of C2 pointers : No

Read offset correction : 30Overread into Lead-In and Lead-Out : YesFill up missing offset samples with silence : YesDelete leading and trailing silent blocks : NoNull samples used in CRC calculations : YesUsed interface : Native Win32 interface for Win NT & 2000Gap handling : Appended to previous track

Used output format : User Defined EncoderSelected bitrate : 1024 kBit/sQuality : HighAdd ID3 tag : NoCommand line compressor : C:\Program Files (x86)\Exact Audio Copy RIP\Flac\flac.exeAdditional command line options : -V -8 -T "Genre=%genre%" -T "Artist=%artist%" -T "Title=%title%" -T "Album=%albumtitle%" -T "Date=%year%" -T "Tracknumber=%tracknr%" -T "Comment=%comment%" %source%

TOC of the extracted CD

Track | Start | Length | Start sector | End sector --------------------------------------------------------- 1 | 0:00.00 | 4:45.02 | 0 | 21376 2 | 4:45.02 | 4:15.13 | 21377 | 40514 3 | 9:00.15 | 5:37.32 | 40515 | 65821 4 | 14:37.47 | 5:04.02 | 65822 | 88623

Track 1

Filename D:\Work\RIPs\01 - Namida no Tane, Egao no Hana.wav

Pre-gap length 0:00:02.00

Peak level 100.0 % Extraction speed 9.0 X Track quality 100.0 % Test CRC C30674C3 Copy CRC C30674C3 Accurately ripped (confidence 4) [587E0641] (AR v2) Copy OK

Track 2

Filename D:\Work\RIPs\02 - Gozen Rokuji.wav

Peak level 100.0 % Extraction speed 9.9 X Track quality 100.0 % Test CRC D0459FD2 Copy CRC D0459FD2 Accurately ripped (confidence 4) [8B5D2CB9] (AR v2) Copy OK

Track 3

Filename D:\Work\RIPs\03 - Sorairo Days -Tengen Toppa EDITION Lagann-hen-.wav

Peak level 100.0 % Extraction speed 10.9 X Track quality 100.0 % Test CRC 5248716E Copy CRC 5248716E Accurately ripped (confidence 5) [A79BFECE] (AR v2) Copy OK

Track 4

Filename D:\Work\RIPs\04 - Namida no Tane, Egao no Hana -Movie Edit-.wav

Peak level 100.0 % Extraction speed 11.7 X Track quality 100.0 % Test CRC 42FD84DB Copy CRC 42FD84DB Accurately ripped (confidence 5) [EA042E91] (AR v2) Copy OK

All tracks accurately ripped

No errors occurred

End of status report

---- CUETools DB Plugin V2.1.6

[CTDB TOCID: eRFiHUZhbC61lx7e4hSx_z2xOBs-] foundSubmit result: already submittedTrack | CTDB Status 1 | (7/7) Accurately ripped 2 | (7/7) Accurately ripped 3 | (7/7) Accurately ripped 4 | (7/7) Accurately ripped

==== Log checksum 9C12463A4D549A12E0982049DA608D897F6403AB75BA07CD39E3B93B917E05EF ====
-----------------------

DON'T MODIFY THIS FILE

-----------------------

PERFORMER: auCDtect Task Manager, ver. 1.6.0 RC1 build 1.6.0.1Copyright (c) 2008-2010 y-soft. All rights reservedhttp://y-soft.org

ANALYZER: auCDtect: CD records authenticity detector, version 0.8.2Copyright (c) 2004 Oleg Berngardt. All rights reserved.Copyright (c) 2004 Alexander Djourik. All rights reserved.

FILE: 03 - Sorairo Days -Tengen Toppa EDITION Lagann-hen-.flac Size: 45798196 Hash: 0070A1FF6D710BB6FE6DD10A057C5B5A Accuracy: -m0 Conclusion: CDDA 100% Signature: E4E62D1F5C7CF6CFB692B326D18854EE188E8034FILE: 04 - Namida no Tane, Egao no Hana -Movie Edit-.flac Size: 40863798 Hash: 5D436BB76A9BF0E6ED90CBE2C226ED1C Accuracy: -m0 Conclusion: CDDA 100% Signature: C1DFF60C72A388441DD7EF4B9A91A381AB05AAADFILE: 01 - Namida no Tane, Egao no Hana.flac Size: 38568725 Hash: A1892440C3DAFE761B71D4797891BFF6 Accuracy: -m0 Conclusion: CDDA 100% Signature: 9FC5EE3A7AF528C7BDED7A4AB40A4F0225C12490FILE: 02 - Gozen Rokuji.flac Size: 33226058 Hash: E6F97F3686D96FEC2FD2045E8D80C2A5 Accuracy: -m0 Conclusion: CDDA 100% Signature: 0F54C34C17997C2E14F1602A5909573D681162A2
[/spoiler]
Приятного прослушивания
<div class="clear" style="height: 8px;"></div>

Трекер:  [ 04-Фев-2017 14:30 ]

  

Скачать .torrent

Размер .torrent файла 37 KB


Размер: 2.68 GB
Хэш (hash) релиза: 27ff430931e48b925fc1b9433b289fb25cf12a26

Еще никто не оставлял запись к записи скачать торрент Tengen Toppa Gurren Lagann Гуррен-Лаганн - 2007-2009 г., FLAC . Будь первым!

!Обратная связь