muder at 1600 720p | Sphinx-based search | Tactik saison 1 épisode 36

Скачать через торрент [VIDEO] Глубоководный горизонт Deepwater Horizon бесплатно русская версия torrent активатор

Статистика раздачи
Размер:  2.08 GB   |    Зарегистрирован:  1 год 5 месяцев   |    .torrent скачан:  34 раза   |   
Раздают:  1  
   
загрузка...
 
Автор Сообщение

Galfimbul

avatar Galfimbul


Глубоководный горизонт / Deepwater Horizon
«When faced with our darkest hour, hope is not a tactic»
Год выпуска: 13 сентября 2016
Оригинальное название: Deepwater Horizon
Страна: Гонконг, США
Жанр: боевик, триллер, драма
Возраст: 16+

Режиссер: Питер Берг / Peter Berg

В ролях: Марк Уолберг, Курт Расселл, Джон Малкович, Джина Родригез, Дилан О`Брайэн, Кейт Хадсон, Итэн Сапли, Генри Фрост, Дуглас М. Гриффин, Сью-Линн Ансари, Брэд Лелэнд, Дж.Д. Эвермор

Описание: Отправляясь на очередную вахту и прощаясь с семьями, они не подозревали, что могут не вернуться… Это основанная на реальных событиях история о страшной аварии на нефтяной платформе «Глубоководный горизонт», которая произошла в 2010 году в Мексиканском заливе. Хроника беспримерного мужества и отваги перед лицом одной из самых страшных техногенных катастроф в мировой истории.

Продолжительность: 01:47:17
Перевод: Дублированный [Лицензия]
Оригинальная дорожка: есть

Автор рипа:

Качество видео: BDRip Исходник: Blu-Ray Remux (1080p) Формат: mp4
Видео кодек: MPEG-4 AVC Аудио кодек: AAC
Видео: 1280x534 (2.40:1) at 23.976 fps, AVC at 2 505 kbps avg, 0.153 bit/pixel
Аудио №1 Rus: 48.0 KHz, AAC, 2 ch, 128.0 Kbps
Аудио №2 Eng: 48.0 KHz, AAC, 2 ch, 128.0 Kbps
Субтитры: английские (полные)
Навигация по главам: есть
Размер: 2.08 GiB
avs [info]: 1280x534p 1:1 @ 24000/1001 fps (cfr)
x264 [info]: using SAR=1/1
x264 [info]: using cpu capabilities: MMX2 SSE2Fast SSSE3 Cache64
x264 [info]: profile High, level 4.1
x264 [info]: frame I:1118 Avg QP:15.56 size: 94091
x264 [info]: frame P:36292 Avg QP:18.68 size: 23876
x264 [info]: frame B:116935 Avg QP:20.34 size: 8928
x264 [info]: consecutive B-frames: 3.0% 4.0% 11.3% 21.9% 17.5% 27.7% 5.0% 4.4% 5.2%
x264 [info]: mb I I16..4: 11.3% 71.5% 17.2%
x264 [info]: mb P I16..4: 4.3% 16.2% 1.5% P16..4: 39.9% 16.0% 9.9% 0.0% 0.0% skip:12.1%
x264 [info]: mb B I16..4: 0.3% 1.5% 0.2% B16..8: 41.7% 7.0% 1.4% direct: 6.9% skip:40.9% L0:44.6% L1:48.8% BI: 6.6%
x264 [info]: 8x8 transform intra:73.5% inter:74.5%
x264 [info]: coded y,uvDC,uvAC intra: 66.3% 81.2% 55.4% inter: 19.6% 30.4% 4.5%
x264 [info]: i16 v,h,dc,p: 32% 15% 10% 42%
x264 [info]: i8 v,h,dc,ddl,ddr,vr,hd,vl,hu: 18% 13% 30% 5% 7% 7% 7% 7% 7%
x264 [info]: i4 v,h,dc,ddl,ddr,vr,hd,vl,hu: 24% 16% 17% 6% 9% 8% 8% 6% 6%
x264 [info]: i8c dc,h,v,p: 51% 20% 19% 11%
x264 [info]: Weighted P-Frames: Y:6.9% UV:5.2%
x264 [info]: ref P L0: 49.2% 9.6% 17.3% 6.6% 5.1% 3.9% 3.4% 2.2% 2.1% 0.6% 0.0%
x264 [info]: ref B L0: 76.1% 11.4% 5.3% 2.6% 1.9% 1.5% 0.9% 0.3%
x264 [info]: ref B L1: 93.2% 6.8%
x264 [info]: kb/s:2504.94
encoded 154345 frames, 2.19 fps, 2504.94 kb/s
GeneralFormat : MPEG-4Format profile : Base MediaCodec ID : isom (isom)File size : 2.08 GiBDuration : 1 h 47 minOverall bit rate mode : VariableOverall bit rate : 2 773 kb/sMovie name : Глубоководный горизонт | KinoGadgetPerformer : Питер БергDirector : Питер БергActor : Марк Уолберг / Курт Расселл / Джон Малкович / Джина Родригез / Дилан О`Брайэн / Кейт Хадсон / Итэн Сапли / Генри Фрост / Дуглас М. Гриффин / Сью-Линн Ансари / Брэд Лелэнд / Дж.Д. ЭверморScreenplay by : Мэттью Сэнд / Мэттью Майкл Карнахан / Дэвид РохдProducer : Лоренцо Ди Бонавентура / Марк Вахрадян / Марк УолбергGenre : Drama, ThrillerContentType : Short FilmRecorded date : 2016Encoded date : UTC 2017-02-04 06:54:45Tagged date : UTC 2017-02-04 07:07:50Cover : YesContentRating : mpaa|PG-13|300|LongDescription : Отправляясь на очередную вахту и прощаясь с семьями, они не подозревали, что могут не вернуться… Это основанная на реальных событиях история о страшной аварии на нефтяной платформе «Глубоководный горизонт», которая произошла в 2010 году в Мексиканском заливе. Хроника беспримерного мужества и отваги перед лицом одной из самых страшных техногенных катастроф в мировой истории.HDVideo : Yes

VideoID : 1Format : AVCFormat/Info : Advanced Video CodecFormat profile : [email protected] settings, CABAC : YesFormat settings, ReFrames : 9 framesCodec ID : avc1Codec ID/Info : Advanced Video CodingDuration : 1 h 47 minBit rate : 2 505 kb/sMaximum bit rate : 13.7 Mb/sWidth : 1 280 pixelsHeight : 534 pixelsDisplay aspect ratio : 2.40:1Frame rate mode : ConstantFrame rate : 23.976 (24000/1001) FPSColor space : YUVChroma subsampling : 4:2:0Bit depth : 8 bitsScan type : ProgressiveBits/(Pixel*Frame) : 0.153Stream size : 1.88 GiB (90%)Writing library : x264 core 148 r2638 7599210Encoding settings : cabac=1 / ref=9 / deblock=1:-1:-1 / analyse=0x3:0x113 / me=umh / subme=7 / psy=1 / psy_rd=1.00:0.15 / mixed_ref=1 / me_range=32 / chroma_me=1 / trellis=2 / 8x8dct=1 / cqm=0 / deadzone=21,11 / fast_pskip=1 / chroma_qp_offset=-3 / threads=3 / lookahead_threads=1 / sliced_threads=0 / nr=0 / decimate=1 / interlaced=0 / bluray_compat=0 / constrained_intra=0 / bframes=8 / b_pyramid=2 / b_adapt=2 / b_bias=0 / direct=1 / weightb=1 / open_gop=0 / weightp=2 / keyint=240 / keyint_min=23 / scenecut=40 / intra_refresh=0 / rc_lookahead=40 / rc=crf / mbtree=1 / crf=19.0 / qcomp=0.60 / qpmin=0 / qpmax=69 / qpstep=4 / vbv_maxrate=62500 / vbv_bufsize=78125 / crf_max=0.0 / nal_hrd=none / filler=0 / ip_ratio=1.40 / aq=1:1.00Encoded date : UTC 2017-02-04 05:43:12Tagged date : UTC 2017-02-04 06:55:40

Audio #1ID : 2Format : AACFormat/Info : Advanced Audio CodecFormat profile : LCCodec ID : 40Duration : 1 h 47 minBit rate mode : VariableBit rate : 128 kb/sMaximum bit rate : 135 kb/sChannel(s) : 2 channelsChannel positions : Front: L RSampling rate : 48.0 kHzFrame rate : 46.875 FPS (1024 spf)Compression mode : LossyStream size : 98.2 MiB (5%)Title : Dub [license]Language : RussianEncoded date : UTC 2017-02-04 05:46:51Tagged date : UTC 2017-02-04 06:55:40

Audio #2ID : 3Format : AACFormat/Info : Advanced Audio CodecFormat profile : LCCodec ID : 40Duration : 1 h 47 minBit rate mode : VariableBit rate : 128 kb/sMaximum bit rate : 135 kb/sChannel(s) : 2 channelsChannel positions : Front: L RSampling rate : 48.0 kHzFrame rate : 46.875 FPS (1024 spf)Compression mode : LossyStream size : 98.2 MiB (5%)Language : EnglishEncoded date : UTC 2017-02-04 05:54:05Tagged date : UTC 2017-02-04 06:55:40

TextID : 4Format : Timed TextCodec ID : tx3gDuration : 1 h 36 minBit rate mode : VariableBit rate : 78 b/sStream size : 55.3 KiB (0%)Title : FullLanguage : EnglishForced : NoEncoded date : UTC 2017-02-04 06:55:39Tagged date : UTC 2017-02-04 06:55:40

Menu00:00:00.000 : Chapter 0100:07:01.212 : Chapter 0300:12:32.626 : Chapter 0500:19:34.464 : Chapter 0700:27:17.218 : Chapter 0900:34:52.632 : Chapter 1100:44:29.833 : Chapter 1300:48:04.923 : Chapter 1500:53:47.599 : Chapter 1700:58:05.148 : Chapter 1901:05:44.607 : Chapter 2101:10:06.869 : Chapter 2301:16:02.933 : Chapter 2501:20:44.381 : Chapter 2701:27:37.668 : Chapter 2901:31:37.825 : Chapter 3101:47:17.222 : Chapter 32
<a href="tracker.php?rid=39840292" class="postLink"> </a>
<div class="clear" style="height: 8px;"></div>

Трекер:  [ 04-Фев-2017 09:30 ]

  

Скачать .torrent

Размер .torrent файла 11 KB


Размер: 2.08 GB
Хэш (hash) релиза: 6e4e9963bf2567f6d335aaaecfa978d9a6fa9e0d

Еще никто не оставлял запись к записи скачать торрент [VIDEO] Глубоководный горизонт Deepwater Horizon . Будь первым!

!Обратная связь