En Famille | Divergent | Floresta Maldita

Скачать через торрент [MULT] Аисты Storks бесплатно русская версия torrent активатор

Статистика раздачи
Размер:  1.71 GB   |    Зарегистрирован:  1 год 5 месяцев   |    .torrent скачан:  50 раз   |   
Раздают:  1  
   
загрузка...
 
Автор Сообщение

Galfimbul

avatar Galfimbul


Аисты / Storks
«From the studio that delivered The Lego Movie»
Год выпуска: 22 сентября 2016
Оригинальное название: Storks
Страна: США
Жанр: мультфильм, фэнтези, комедия, приключения, семейный
Возраст: 6+

Режиссер: Николас Столлер, Даг Свитлэнд / Nicholas Stoller, Doug Sweetland

В ролях: Энди Сэмберг, Кэти Краун, Келси Грэммер, Дженнифер Энистон, Тай Буррелл, Антон Старкман, Кигэн-Майкл Ки, Джордан Пил, Дэнни Трехо, Стив Гликман

Описание: Аисты приносят детей… или, во всяком случае, раньше приносили. Теперь же они занимаются доставкой посылок для огромного сайта интернет-продаж. Джуниор, лучший аист в курьерской компании, должен пойти на повышение, но он случайно активирует машину для создания детей и получает очаровательную, но совершенно незапланированную девочку.

Пытаясь доставить эту «посылку» до того, как босс узнает о произошедшем, Джуниор и его подруга Лютик, единственный человек на Горе Аистов, решаются на свою первую доставку ребёнка и отправляются в безумное и насыщенное удивительными открытиями приключение, благодаря которому многие семьи могут стать полными, а аисты — вернуться к своей истинной миссии на Земле.

Продолжительность: 01:26:57
Перевод: Дублированный [Лицензия]
Оригинальная дорожка: есть

Автор рипа:

Качество видео: BDRip Исходник: Blu-Ray Remux (1080p) Формат: mp4
Видео кодек: MPEG-4 AVC Аудио кодек: AAC
Видео: 1280x536 (2.40:1) at 23.976 fps, AVC at 2 544 kbps avg, 0.155 bit/pixel
Аудио №1 Rus: 48.0 KHz, AAC, 2 ch, 128.0 Kbps
Аудио №2 Eng: 48.0 KHz, AAC, 2 ch, 128.0 Kbps
Субтитры: русские (форсированные, полные), английские (полные)
Навигация по главам: есть
Размер: 1.71 GiB
avs [info]: 1280x536p 1:1 @ 24000/1001 fps (cfr)
x264 [info]: using SAR=1/1
x264 [info]: using cpu capabilities: MMX2 SSE2Fast SSSE3 Cache64
x264 [info]: profile High, level 4.1
x264 [info]: frame I:1188 Avg QP:15.82 size:101690
x264 [info]: frame P:28317 Avg QP:19.38 size: 29652
x264 [info]: frame B:95597 Avg QP:21.49 size: 7313
x264 [info]: consecutive B-frames: 3.2% 3.1% 6.4% 23.7% 19.0% 32.7% 6.0% 4.4% 1.6%
x264 [info]: mb I I16..4: 7.4% 72.6% 20.0%
x264 [info]: mb P I16..4: 2.7% 14.2% 1.7% P16..4: 42.4% 19.0% 11.1% 0.0% 0.0% skip: 8.9%
x264 [info]: mb B I16..4: 0.2% 1.2% 0.2% B16..8: 42.8% 6.5% 1.4% direct: 4.6% skip:43.0% L0:44.6% L1:49.4% BI: 6.0%
x264 [info]: 8x8 transform intra:75.9% inter:71.9%
x264 [info]: coded y,uvDC,uvAC intra: 74.6% 80.1% 50.0% inter: 19.1% 22.2% 4.0%
x264 [info]: i16 v,h,dc,p: 21% 15% 7% 57%
x264 [info]: i8 v,h,dc,ddl,ddr,vr,hd,vl,hu: 18% 16% 21% 5% 8% 8% 9% 7% 8%
x264 [info]: i4 v,h,dc,ddl,ddr,vr,hd,vl,hu: 23% 17% 12% 6% 10% 9% 9% 7% 6%
x264 [info]: i8c dc,h,v,p: 44% 22% 20% 13%
x264 [info]: Weighted P-Frames: Y:5.5% UV:4.3%
x264 [info]: ref P L0: 51.6% 9.9% 16.3% 6.4% 4.9% 3.5% 3.2% 1.9% 1.9% 0.4% 0.0%
x264 [info]: ref B L0: 76.2% 11.2% 5.3% 2.6% 1.8% 1.6% 0.9% 0.3%
x264 [info]: ref B L1: 92.8% 7.2%
x264 [info]: kb/s:2544.49
encoded 125102 frames, 2.35 fps, 2544.49 kb/s
GeneralFormat : MPEG-4Format profile : Base MediaCodec ID : isom (isom)File size : 1.71 GiBDuration : 1 h 26 minOverall bit rate mode : VariableOverall bit rate : 2 813 kb/sMovie name : Аисты | KinoGadgetPerformer : Николас Столлер, Даг СвитлэндDirector : Николас Столлер / Даг СвитлэндActor : Энди Сэмберг / Кэти Краун / Келси Грэммер / Дженнифер Энистон / Тай Буррелл / Антон Старкман / Кигэн-Майкл Ки / Джордан Пил / Дэнни Трехо / Стив ГликманScreenplay by : Николас СтоллерProducer : Гленн Фикарра / Джон Крейдман / Брэд ЛьюисGenre : Adventure, Animation, ComedyContentType : Short FilmRecorded date : 2016Encoded date : UTC 2017-02-03 08:37:58Tagged date : UTC 2017-02-03 08:44:33Cover : YesContentRating : mpaa|PG|200|LongDescription : Аисты приносят детей… или, во всяком случае, раньше приносили. Теперь же они занимаются доставкой посылок для огромного сайта интернет-продаж. Джуниор, лучший аист в курьерской компании, должен пойти на повышение, но он случайно активирует машину для создания детей и получает очаровательную, но совершенно незапланированную девочку.HDVideo : Yes

VideoID : 1Format : AVCFormat/Info : Advanced Video CodecFormat profile : [email protected] settings, CABAC : YesFormat settings, ReFrames : 9 framesCodec ID : avc1Codec ID/Info : Advanced Video CodingDuration : 1 h 26 minBit rate : 2 544 kb/sMaximum bit rate : 12.4 Mb/sWidth : 1 280 pixelsHeight : 536 pixelsDisplay aspect ratio : 2.40:1Frame rate mode : ConstantFrame rate : 23.976 (24000/1001) FPSColor space : YUVChroma subsampling : 4:2:0Bit depth : 8 bitsScan type : ProgressiveBits/(Pixel*Frame) : 0.155Stream size : 1.55 GiB (90%)Writing library : x264 core 148 r2638 7599210Encoding settings : cabac=1 / ref=9 / deblock=1:1:1 / analyse=0x3:0x113 / me=umh / subme=7 / psy=1 / psy_rd=1.00:0.15 / mixed_ref=1 / me_range=32 / chroma_me=1 / trellis=2 / 8x8dct=1 / cqm=0 / deadzone=21,11 / fast_pskip=1 / chroma_qp_offset=-3 / threads=3 / lookahead_threads=1 / sliced_threads=0 / nr=0 / decimate=1 / interlaced=0 / bluray_compat=0 / constrained_intra=0 / bframes=8 / b_pyramid=2 / b_adapt=2 / b_bias=0 / direct=1 / weightb=1 / open_gop=0 / weightp=2 / keyint=240 / keyint_min=23 / scenecut=40 / intra_refresh=0 / rc_lookahead=40 / rc=crf / mbtree=1 / crf=19.0 / qcomp=0.60 / qpmin=0 / qpmax=69 / qpstep=4 / vbv_maxrate=62500 / vbv_bufsize=78125 / crf_max=0.0 / nal_hrd=none / filler=0 / ip_ratio=1.40 / aq=1:1.00Encoded date : UTC 2017-02-03 08:16:19Tagged date : UTC 2017-02-03 08:38:38

Audio #1ID : 2Format : AACFormat/Info : Advanced Audio CodecFormat profile : LCCodec ID : 40Duration : 1 h 26 minBit rate mode : VariableBit rate : 128 kb/sMaximum bit rate : 135 kb/sChannel(s) : 2 channelsChannel positions : Front: L RSampling rate : 48.0 kHzFrame rate : 46.875 FPS (1024 spf)Compression mode : LossyStream size : 79.6 MiB (5%)Title : Dub [license]Language : RussianEncoded date : UTC 2017-02-03 08:19:33Tagged date : UTC 2017-02-03 08:38:38

Audio #2ID : 3Format : AACFormat/Info : Advanced Audio CodecFormat profile : LCCodec ID : 40Duration : 1 h 26 minBit rate mode : VariableBit rate : 128 kb/sMaximum bit rate : 135 kb/sChannel(s) : 2 channelsChannel positions : Front: L RSampling rate : 48.0 kHzFrame rate : 46.875 FPS (1024 spf)Compression mode : LossyStream size : 79.6 MiB (5%)Language : EnglishEncoded date : UTC 2017-02-03 08:28:47Tagged date : UTC 2017-02-03 08:38:38

Text #1ID : 4Format : Timed TextCodec ID : tx3gDuration : 1 h 15 minBit rate mode : VariableBit rate : 2 b/sStream size : 1.16 KiB (0%)Title : ForcedLanguage : RussianForced : NoEncoded date : UTC 2017-02-03 08:38:38Tagged date : UTC 2017-02-03 08:38:38

Text #2ID : 5Format : Timed TextCodec ID : tx3gDuration : 1 h 21 minBit rate mode : VariableBit rate : 116 b/sStream size : 68.9 KiB (0%)Title : FullLanguage : RussianForced : NoEncoded date : UTC 2017-02-03 08:38:38Tagged date : UTC 2017-02-03 08:38:38

Text #3ID : 6Format : Timed TextCodec ID : tx3gDuration : 1 h 26 minBit rate mode : VariableBit rate : 93 b/sStream size : 59.1 KiB (0%)Title : FullLanguage : EnglishForced : NoEncoded date : UTC 2017-02-03 08:38:38Tagged date : UTC 2017-02-03 08:38:38

Menu00:00:00.000 : Chapter 100:10:26.500 : Chapter 200:20:35.733 : Chapter 300:30:24.404 : Chapter 400:39:30.034 : Chapter 500:50:24.478 : Chapter 600:59:24.434 : Chapter 701:07:06.021 : Chapter 801:14:28.296 : Chapter 901:20:53.597 : Chapter 10
<a href="tracker.php?rid=39840292" class="postLink"> </a>
<div class="clear" style="height: 8px;"></div>

Трекер:  [ 03-Фев-2017 11:00 ]

  

Скачать .torrent

Размер .torrent файла 17 KB


Размер: 1.71 GB
Хэш (hash) релиза: 8b906a2665568e231338553688602b1b940f483c

Еще никто не оставлял запись к записи скачать торрент [MULT] Аисты Storks . Будь первым!

!Обратная связь