Recent Searches | Télécharger Part 1 | PlutoNash

Скачать через торрент [VIDEO] Сутенер Le mac бесплатно русская версия torrent активатор

Статистика раздачи
Размер:  1.1 GB   |    Зарегистрирован:  1 год 5 месяцев   |    .torrent скачан:  25 раз   |   
Раздают:  1  
   
загрузка...
 
Автор Сообщение

Galfimbul

avatar Galfimbul


<span class="post-font-serif1">Сутенер / Le mac</span>

<span class="post-font-serif1">Год выпуска: 2009
Страна: Франция
Жанр: комедия
Продолжительность: 01:32:13
Перевод: Русский Профессиональный (полное дублирование)
Cубтитры: нет</span>
<span class="post-font-serif1">Режиссер: Паскаль Бюрдо / Pascal Bourdiaux</span>
<span class="post-font-serif1">В ролях: Хосе Гарсия, Гилберт Мелки, Кармен Маура, Арсен Моска, Джо Престиа, Каталина Дэнис, Ален Фромаже, Лорен Батье, Дуду Маста и другие .</span>
<span class="post-font-serif1">Описание: Его зовут Жильбер Шапель и он успешный банкир. В один прекрасный день его жизнь круто меняется! Оказывается, у Жильбера есть брат-близнец, который является опасным преступником и сутенером. Полицейские разыскали Жильбера и предложили ему необычную сделку! Жильбер сыграет роль своего брата и у него всего 36 часов на превращение из банкира в сутенера!</span>
<span class="post-font-serif1">Релиз группы </span>
<span class="post-font-serif1">Качество: BDRip / рип с BDRemux 1080p (HDCLUB)
Формат: MP4
Видео кодек: H.264
Аудио кодек: AAC
Видео: 960x410 AR:2.35 1571 kbps 24.000 fps
Аудио: [Russian] 2ch 48 kHz 128 kbps - Профессиональный (полное дублирование)</span>
avs [info]: 960x410p 1:1 @ 24/1 fps (cfr)
x264 [info]: using SAR=1/1
x264 [info]: using cpu capabilities: MMX2 SSE2Fast SSSE3 SSE4.2 AVX FMA3 AVX2 LZCNT BMI2
x264 [info]: profile High, level 4.1

x264 [info]: frame I:1571 Avg QP:19.72 size: 44756
x264 [info]: frame P:29124 Avg QP:21.30 size: 16835
x264 [info]: frame B:102084 Avg QP:24.09 size: 5153
x264 [info]: consecutive B-frames: 2.4% 1.9% 8.1% 25.1% 21.0% 32.9% 5.0% 1.5% 1.2% 1.0%
x264 [info]: mb I I16..4: 6.3% 70.3% 23.4%
x264 [info]: mb P I16..4: 0.6% 8.7% 2.0% P16..4: 32.5% 37.5% 11.3% 0.0% 0.0% skip: 7.4%
x264 [info]: mb B I16..4: 0.0% 0.9% 0.2% B16..8: 36.8% 18.4% 3.0% direct: 3.9% skip:36.6% L0:42.5% L1:46.5% BI:11.1%
x264 [info]: 8x8 transform intra:75.6% inter:65.5%
x264 [info]: coded y,uvDC,uvAC intra: 91.6% 85.8% 56.0% inter: 20.3% 14.2% 1.4%
x264 [info]: i16 v,h,dc,p: 16% 23% 4% 56%
x264 [info]: i8 v,h,dc,ddl,ddr,vr,hd,vl,hu: 8% 6% 3% 11% 16% 16% 14% 13% 12%
x264 [info]: i4 v,h,dc,ddl,ddr,vr,hd,vl,hu: 12% 6% 5% 9% 15% 16% 13% 12% 11%
x264 [info]: i8c dc,h,v,p: 34% 23% 22% 21%
x264 [info]: Weighted P-Frames: Y:10.3% UV:8.0%
x264 [info]: ref P L0: 49.1% 12.0% 16.7% 5.9% 5.3% 3.7% 3.4% 1.7% 1.9% 0.2% 0.0%
x264 [info]: ref B L0: 77.8% 9.5% 5.2% 2.5% 2.2% 1.7% 1.0% 0.3%
x264 [info]: ref B L1: 94.9% 5.1%
x264 [info]: kb/s:1571.30

encoded 132779 frames, 13.48 fps, 1571.30 kb/s
GeneralComplete name : D:\Torrents\Sytener.2009.BDRip.x264.960x.rip by Frost O.S.mp4Format : MPEG-4Format profile : Base MediaCodec ID : isom (isom/avc1/iso2)File size : 1.10 GiBDuration : 1 h 32 minOverall bit rate mode : VariableOverall bit rate : 1 707 kb/sMovie name : Sytener 2009 BDRip x264 960x rip by Frost O SGenre : ComedyContentType : Short FilmEncoded date : UTC 2017-02-02 14:48:24Tagged date : UTC 2017-02-02 14:50:02Writing application : MkvToMp4 version: 0.224 (x64)Cover : YesComment : rip by Frost O.S

VideoID : 1Format : AVCFormat/Info : Advanced Video CodecFormat profile : [email protected] settings, CABAC : YesFormat settings, ReFrames : 9 framesCodec ID : avc1Codec ID/Info : Advanced Video CodingDuration : 1 h 32 minBit rate : 1 571 kb/sMaximum bit rate : 12.2 Mb/sWidth : 960 pixelsHeight : 410 pixelsDisplay aspect ratio : 2.35:1Frame rate mode : ConstantFrame rate : 24.000 FPSColor space : YUVChroma subsampling : 4:2:0Bit depth : 8 bitsScan type : ProgressiveBits/(Pixel*Frame) : 0.166Stream size : 1.01 GiB (92%)Writing library : x264 core 148 r2705 3f5ed56Encoding settings : cabac=1 / ref=9 / deblock=1:-1:-1 / analyse=0x3:0x113 / me=umh / subme=11 / psy=1 / psy_rd=0.98:0.00 / mixed_ref=1 / me_range=32 / chroma_me=1 / trellis=2 / 8x8dct=1 / cqm=0 / deadzone=21,11 / fast_pskip=1 / chroma_qp_offset=-2 / threads=6 / lookahead_threads=1 / sliced_threads=0 / nr=0 / decimate=1 / interlaced=0 / bluray_compat=0 / constrained_intra=0 / bframes=9 / b_pyramid=2 / b_adapt=2 / b_bias=0 / direct=1 / weightb=1 / open_gop=0 / weightp=2 / keyint=250 / keyint_min=24 / scenecut=40 / intra_refresh=0 / rc=crf / mbtree=0 / crf=19.5 / qcomp=0.65 / qpmin=0 / qpmax=69 / qpstep=4 / ip_ratio=1.40 / pb_ratio=1.30 / aq=2:1.00Language : EnglishEncoded date : UTC 2017-02-02 14:48:24Tagged date : UTC 2017-02-02 14:49:00Color range : LimitedColor primaries : BT.709Transfer characteristics : BT.709Matrix coefficients : BT.709

AudioID : 2Format : AACFormat/Info : Advanced Audio CodecFormat profile : LCCodec ID : 40Duration : 1 h 32 minBit rate mode : VariableBit rate : 128 kb/sMaximum bit rate : 135 kb/sChannel(s) : 2 channelsChannel positions : Front: L RSampling rate : 48.0 kHzFrame rate : 46.875 FPS (1024 spf)Compression mode : LossyStream size : 84.4 MiB (7%)Title : Dub / DubLanguage : RussianDefault : YesAlternate group : 1Encoded date : UTC 2017-02-02 14:48:48Tagged date : UTC 2017-02-02 14:49:00
<div class="clear" style="height: 8px;"></div>

Трекер:  [ 02-Фев-2017 17:30 ]

  

Скачать .torrent

Размер .torrent файла 11 KB


Размер: 1.1 GB
Хэш (hash) релиза: b512f05779c70e9302572d4630dbea896e571dd4

Торренты, похожие на [VIDEO] Сутенер Le mac скачать торрент

Форум Название Автор Размер S L Добавлен
Видео (Фильмы/Клипы) ·· [VIDEO] Сутенер / Le mac (Паскаль Бюрдо / Pascal Bourdiaux) [2009, комедия, HDRip] [MP4, 480x] Dub Galfimbul 432051099412 MB 0 0 1486049945

18:39

2-Фев-17

Еще никто не оставлял запись к записи скачать торрент [VIDEO] Сутенер Le mac . Будь первым!

!Обратная связь