Carien Schutte | Milla 22 (2018) | The First 48 – Am Tatort mit den US-Ermittlern

Скачать через торрент [VIDEO] Сутенер Le mac бесплатно русская версия torrent активатор

Статистика раздачи
Размер:  412 MB   |    Зарегистрирован:  1 год 5 месяцев   |    .torrent скачан:  23 раза   |   
Раздают:  1  
   
загрузка...
 
Автор Сообщение

Galfimbul

avatar Galfimbul


<span class="post-font-serif1">Сутенер / Le mac</span>

<span class="post-font-serif1">Год выпуска: 2009
Страна: Франция
Жанр: комедия
Продолжительность: 01:32:13
Перевод: Русский Профессиональный (полное дублирование)
Cубтитры: нет</span>
<span class="post-font-serif1">Режиссер: Паскаль Бюрдо / Pascal Bourdiaux</span>
<span class="post-font-serif1">В ролях: Хосе Гарсия, Гилберт Мелки, Кармен Маура, Арсен Моска, Джо Престиа, Каталина Дэнис, Ален Фромаже, Лорен Батье, Дуду Маста и другие .</span>
<span class="post-font-serif1">Описание: Его зовут Жильбер Шапель и он успешный банкир. В один прекрасный день его жизнь круто меняется! Оказывается, у Жильбера есть брат-близнец, который является опасным преступником и сутенером. Полицейские разыскали Жильбера и предложили ему необычную сделку! Жильбер сыграет роль своего брата и у него всего 36 часов на превращение из банкира в сутенера!</span>
<span class="post-font-serif1">Релиз группы </span>
<span class="post-font-serif1">Качество: HDRip / рип с BDRip 720p(HDCLUB)
Формат: MP4
Видео кодек: XviD
Аудио кодек: AAC
Видео: 480x200 AR:2.40 489 kbps 24.000 fps
Аудио: [Russian] 2ch 48 kHz 128 kbps - Профессиональный (полное дублирование)</span>
GeneralComplete name : D:\Torrents\Sytener.2009.HDRip.XviD.480x.rip by Frost O.S.mp4Format : MPEG-4Format profile : Base MediaCodec ID : isom (isom/iso2)File size : 412 MiBDuration : 1 h 32 minOverall bit rate mode : VariableOverall bit rate : 625 kb/sMovie name : Sytener 2009 HDRip XviD 480x rip by Frost O SGenre : ComedyContentType : Short FilmEncoded date : UTC 2017-02-02 14:54:28Tagged date : UTC 2017-02-02 14:55:00Writing application : MkvToMp4 version: 0.224 (x64)Cover : YesComment : rip by Frost O.S

VideoID : 1Format : MPEG-4 VisualFormat profile : Advanced [email protected] settings, BVOP : YesFormat settings, QPel : NoFormat settings, GMC : No warppointsFormat settings, Matrix : CustomCodec ID : 20Duration : 1 h 32 minBit rate mode : VariableBit rate : 489 kb/sMaximum bit rate : 2 806 kb/sWidth : 480 pixelsHeight : 200 pixelsDisplay aspect ratio : 2.40:1Frame rate mode : ConstantFrame rate : 24.000 FPSColor space : YUVChroma subsampling : 4:2:0Bit depth : 8 bitsScan type : ProgressiveCompression mode : LossyBits/(Pixel*Frame) : 0.212Stream size : 323 MiB (78%)Title : avi_GPAC0.5.2_DEV_rev248_g39d5978_masterWriting library : XviD 1.2.1 (UTC 2008-12-04)Language : EnglishTagged date : UTC 2017-02-02 14:54:42

AudioID : 2Format : AACFormat/Info : Advanced Audio CodecFormat profile : LCCodec ID : 40Duration : 1 h 32 minBit rate mode : VariableBit rate : 128 kb/sMaximum bit rate : 135 kb/sChannel(s) : 2 channelsChannel positions : Front: L RSampling rate : 48.0 kHzFrame rate : 46.875 FPS (1024 spf)Compression mode : LossyStream size : 84.4 MiB (20%)Title : Dub / DubLanguage : RussianDefault : YesAlternate group : 1Encoded date : UTC 2017-02-02 14:54:39Tagged date : UTC 2017-02-02 14:54:42
<div class="clear" style="height: 8px;"></div>

Трекер:  [ 02-Фев-2017 17:30 ]

  

Скачать .torrent

Размер .torrent файла 16 KB


Размер: 412 MB
Хэш (hash) релиза: c78e53470e429aaeba28169fc86d41c34920a59a

Торренты, похожие на [VIDEO] Сутенер Le mac скачать торрент

Форум Название Автор Размер S L Добавлен
Видео (Фильмы/Клипы) ·· [VIDEO] Сутенер / Le mac (Паскаль Бюрдо / Pascal Bourdiaux) [2009, комедия, BDRip] [MP4, 960x] Dub Galfimbul 11804170481.1 GB 0 0 1486049949

18:39

2-Фев-17

Еще никто не оставлял запись к записи скачать торрент [VIDEO] Сутенер Le mac . Будь первым!

!Обратная связь