Dragon Knight 2 [27.05.18] (Crea Games) (RUS) [L] Подробнее... Залито: 27-05-2018 18:38 (534 просмотра) Dragon Knight 2 [27.05.18] (Crea Games) (RUS) [L] Многопользовательские игры Dragon Knight 2 — несомненный хит онлайн-игр 2017 года и продолжение одной из самых популярных MMORPG, покорившей весь мир. Доблестных Рыцарей драконов ждут новые приключения. Ведь Зло не дремлет, демоны Бездны строят козни, посягая на самое святое — Древо жизни!... Раздают: 2 Качают: 0 Размер: 523MB | Hand Shakers | Agallas, el perro cobarde

Скачать через торрент [VIDEO] Частный курорт Private Resort бесплатно русская версия torrent активатор

Статистика раздачи
Размер:  360 MB   |    Зарегистрирован:  1 год 5 месяцев   |    .torrent скачан:  26 раз   |   
Раздают:  1  
   
загрузка...
 
Автор Сообщение

Galfimbul

avatar Galfimbul


<span class="post-font-serif1">Частный курорт / Private Resort</span>
<span class="post-font-serif1">«Spend a weekend with no reservations!»</span>

<span class="post-font-serif1">Год выпуска: 1985
Страна: США
Жанр: комедия
Продолжительность: 01:21:53
Перевод: Русский Профессиональный (многоголосый, закадровый) СТС
Cубтитры: нет</span>
<span class="post-font-serif1">Режиссер: Джордж Бауэрс / George Bowers</span>
<span class="post-font-serif1">В ролях: Роб Морроу, Джонни Депп, Эмили Лонгстрет, Керин О’Брайан, Гектор Элизондо, Доди Гудмен, Тони Азито, Хилари Шепард, Лесли Истербрук, Майкл Боуэн и другие .</span>
<span class="post-font-serif1">Описание: Два молодых и веселых парня попадают в роскошный отель на побережье, где стараются «оттянуться по полной программе». К сожалению, местный вор и гостиничный детектив все время мешают ребятам заниматься их любимым «видом спорта» — здоровым сексом.</span>
<span class="post-font-serif1">Релиз группы </span>
<span class="post-font-serif1">Качество: HDRip / рип с BDRip 720p
Формат: MP4
Видео кодек: XviD
Аудио кодек: AAC
Видео: 480x264 AR:16/9 479 kbps 23.976 fps
Аудио: [Russian] 2ch 48 kHz 128 kbps - Профессиональный (многоголосый, закадровый) СТС</span>
GeneralComplete name : D:\Torrents\Private Resort.1985.HDRip.XviD.480x.rip by Frost O.S.mp4Format : MPEG-4Format profile : Base MediaCodec ID : isom (isom/iso2)File size : 360 MiBDuration : 1 h 21 minOverall bit rate mode : VariableOverall bit rate : 615 kb/sMovie name : Private Resort 1985 HDRip XviD 480x rip by Frost O SGenre : ComedyContentType : Short FilmEncoded date : UTC 2017-02-02 14:36:24Tagged date : UTC 2017-02-02 14:36:57Writing application : MkvToMp4 version: 0.224 (x64)Cover : YesComment : rip by Frost O.SLongDescription : Два молодых и веселых парня попадают в роскошный отель на побережье, где стараются «оттянуться по полной программе». К сожалению, местный вор и гостиничный детектив все время мешают ребятам заниматься их любимым «видом спорта» — здоровым сексом.

VideoID : 1Format : MPEG-4 VisualFormat profile : Advanced [email protected] settings, BVOP : YesFormat settings, QPel : NoFormat settings, GMC : No warppointsFormat settings, Matrix : CustomCodec ID : 20Duration : 1 h 21 minBit rate mode : VariableBit rate : 479 kb/sMaximum bit rate : 1 548 kb/sWidth : 480 pixelsHeight : 264 pixelsDisplay aspect ratio : 16:9Frame rate mode : ConstantFrame rate : 23.976 (24000/1001) FPSOriginal frame rate : 23.976 (23976/1000) FPSColor space : YUVChroma subsampling : 4:2:0Bit depth : 8 bitsScan type : ProgressiveCompression mode : LossyBits/(Pixel*Frame) : 0.158Stream size : 280 MiB (78%)Title : avi_GPAC0.5.2_DEV_rev248_g39d5978_masterWriting library : XviD 1.2.1 (UTC 2008-12-04)Language : EnglishTagged date : UTC 2017-02-02 14:36:34

AudioID : 2Format : AACFormat/Info : Advanced Audio CodecFormat profile : LCCodec ID : 40Duration : 1 h 21 minBit rate mode : VariableBit rate : 128 kb/sMaximum bit rate : 132 kb/sChannel(s) : 2 channelsChannel positions : Front: L RSampling rate : 48.0 kHzFrame rate : 46.875 FPS (1024 spf)Compression mode : LossyStream size : 75.0 MiB (21%)Title : MVO CTC / MVO CTCLanguage : RussianDefault : YesAlternate group : 1Encoded date : UTC 2017-02-02 14:36:31Tagged date : UTC 2017-02-02 14:36:34
<div class="clear" style="height: 8px;"></div>

Трекер:  [ 02-Фев-2017 17:00 ]

  

Скачать .torrent

Размер .torrent файла 14 KB


Размер: 360 MB
Хэш (hash) релиза: db549265ec9239180212482926fbaa0079713658

Торренты, похожие на [VIDEO] Частный курорт Private Resort скачать торрент

Форум Название Автор Размер S L Добавлен
Видео (Фильмы/Клипы) ·· [VIDEO] Частный курорт / Private Resort (Джордж Бауэрс / George Bowers) [1985, комедия, BDRip] [MP4, 960x] MVO CTC, VO Товбин, MVO ИНТЕР, MVO 1+1 Galfimbul 16092854121.5 GB 0 0 1485936095

11:01

1-Фев-17

Еще никто не оставлял запись к записи скачать торрент [VIDEO] Частный курорт Private Resort . Будь первым!

!Обратная связь