Ocean's Eight 2018 720p | Purple Candy - April 2018[PDF] | Chapter 274

Скачать через торрент [VIDEO] Частный курорт Private Resort бесплатно русская версия torrent активатор

Статистика раздачи
Размер:  1.5 GB   |    Зарегистрирован:  1 год 5 месяцев   |    .torrent скачан:  43 раза   |   
Раздают:  1  
   
загрузка...
 
Автор Сообщение

Galfimbul

avatar Galfimbul


<span class="post-font-serif1">Частный курорт / Private Resort</span>
<span class="post-font-serif1">«Spend a weekend with no reservations!»</span>

<span class="post-font-serif1">Год выпуска: 1985
Страна: США
Жанр: комедия
Продолжительность: 01:21:53
Перевод №1: Русский Профессиональный (многоголосый, закадровый) СТС
Перевод №2: Русский Авторский (одноголосый, закадровый) Ю. Товбин
Перевод №3: Украинский Профессиональный (многоголосый, закадровый) ИНТЕР
Перевод №4: Украинский Профессиональный (многоголосый, закадровый) 1+1
Cубтитры: нет</span>
<span class="post-font-serif1">Режиссер: Джордж Бауэрс / George Bowers</span>
<span class="post-font-serif1">В ролях: Роб Морроу, Джонни Депп, Эмили Лонгстрет, Керин О’Брайан, Гектор Элизондо, Доди Гудмен, Тони Азито, Хилари Шепард, Лесли Истербрук, Майкл Боуэн и другие .</span>
<span class="post-font-serif1">Описание: Два молодых и веселых парня попадают в роскошный отель на побережье, где стараются «оттянуться по полной программе». К сожалению, местный вор и гостиничный детектив все время мешают ребятам заниматься их любимым «видом спорта» — здоровым сексом.</span>
<span class="post-font-serif1">Релиз группы </span>
<span class="post-font-serif1">Качество: BDRip / рип с BDRemux 1080p (HDCLUB)
Формат: MP4
Видео кодек: H.264
Аудио кодек: AAC
Видео: 960x520 AR:1.85 2090 kbps 23.976 fps
Аудио №1: [Russian] 2ch 48 kHz 128 kbps - Профессиональный (многоголосый, закадровый) СТС
Аудио №2: [Russian] 2ch 48 kHz 128 kbps - Авторский (одноголосый, закадровый) Ю. Товбин
Аудио №3: [Ukrainian] 2ch 48 kHz 128 kbps - Профессиональный (многоголосый, закадровый) ИНТЕР
Аудио №4: [Ukrainian] 2ch 48 kHz 128 kbps - Профессиональный (многоголосый, закадровый) 1+1</span>
avs [info]: 960x520p 1:1 @ 2997/125 fps (cfr)
x264 [info]: using SAR=1/1
x264 [info]: using cpu capabilities: MMX2 SSE2Fast SSSE3 SSE4.2 AVX FMA3 AVX2 LZCNT BMI2
x264 [info]: profile High, level 4.1
x264 [info]: frame I:1049 Avg QP:22.12 size: 55491
x264 [info]: frame P:27069 Avg QP:24.05 size: 21274
x264 [info]: frame B:89669 Avg QP:26.21 size: 7241
x264 [info]: consecutive B-frames: 1.6% 2.2% 7.9% 37.8% 23.8% 23.1% 2.7% 0.9%
x264 [info]: mb I I16..4: 4.0% 81.6% 14.4%
x264 [info]: mb P I16..4: 0.4% 11.1% 1.5% P16..4: 35.4% 37.1% 9.3% 0.0% 0.0% skip: 5.2%
x264 [info]: mb B I16..4: 0.0% 1.2% 0.1% B16..8: 39.6% 17.1% 2.7% direct: 5.2% skip:34.1% L0:42.1% L1:46.9% BI:11.0%
x264 [info]: 8x8 transform intra:84.7% inter:65.6%
x264 [info]: coded y,uvDC,uvAC intra: 93.4% 64.3% 22.8% inter: 25.4% 18.7% 0.6%
x264 [info]: i16 v,h,dc,p: 37% 15% 2% 46%
x264 [info]: i8 v,h,dc,ddl,ddr,vr,hd,vl,hu: 11% 6% 5% 10% 15% 14% 14% 12% 12%
x264 [info]: i4 v,h,dc,ddl,ddr,vr,hd,vl,hu: 12% 6% 2% 9% 16% 16% 14% 12% 13%
x264 [info]: i8c dc,h,v,p: 26% 27% 23% 25%
x264 [info]: Weighted P-Frames: Y:21.4% UV:13.3%
x264 [info]: ref P L0: 44.3% 12.8% 18.7% 6.5% 5.5% 3.8% 3.7% 1.9% 2.2% 0.5% 0.0%
x264 [info]: ref B L0: 83.4% 8.2% 3.4% 1.7% 1.2% 1.1% 0.7% 0.3%
x264 [info]: ref B L1: 97.4% 2.6%
x264 [info]: kb/s:2089.96

x264 [total]: encoded 117787 frames, 7.84 fps, 2089.96 kb/s
GeneralComplete name : D:\Torrents\Private Resort.1985.BDRip.x264.960x.rip by Frost O.S.mp4Format : MPEG-4Format profile : Base MediaCodec ID : isom (isom/avc1/iso2)File size : 1.50 GiBDuration : 1 h 21 minOverall bit rate mode : VariableOverall bit rate : 2 621 kb/sMovie name : Private Resort 1985 BDRip x264 960x rip by Frost O SGenre : ComedyContentType : Short FilmEncoded date : UTC 2017-02-01 07:31:38Tagged date : UTC 2017-02-01 07:33:40Writing application : MkvToMp4 version: 0.224 (x64)Cover : YesComment : rip by Frost O.SLongDescription : Два молодых и веселых парня попадают в роскошный отель на побережье, где стараются «оттянуться по полной программе». К сожалению, местный вор и гостиничный детектив все время мешают ребятам заниматься их любимым «видом спорта» — здоровым сексом.

VideoID : 1Format : AVCFormat/Info : Advanced Video CodecFormat profile : [email protected] settings, CABAC : YesFormat settings, ReFrames : 9 framesCodec ID : avc1Codec ID/Info : Advanced Video CodingDuration : 1 h 21 minBit rate : 2 090 kb/sMaximum bit rate : 6 717 kb/sWidth : 960 pixelsHeight : 520 pixelsDisplay aspect ratio : 1.85:1Frame rate mode : ConstantFrame rate : 23.976 (24000/1001) FPSOriginal frame rate : 23.976 (23976/1000) FPSColor space : YUVChroma subsampling : 4:2:0Bit depth : 8 bitsScan type : ProgressiveBits/(Pixel*Frame) : 0.175Stream size : 1.20 GiB (80%)Writing library : x264 core 148 r2705 3f5ed56Encoding settings : cabac=1 / ref=9 / deblock=1:-2:-2 / analyse=0x3:0x113 / me=umh / subme=11 / psy=1 / psy_rd=1.00:0.15 / mixed_ref=1 / me_range=32 / chroma_me=1 / trellis=2 / 8x8dct=1 / cqm=0 / deadzone=21,11 / fast_pskip=1 / chroma_qp_offset=-3 / threads=6 / lookahead_threads=6 / sliced_threads=0 / nr=0 / decimate=1 / interlaced=0 / bluray_compat=0 / constrained_intra=0 / bframes=7 / b_pyramid=2 / b_adapt=2 / b_bias=0 / direct=1 / weightb=1 / open_gop=0 / weightp=2 / keyint=250 / keyint_min=23 / scenecut=40 / intra_refresh=0 / rc=crf / mbtree=0 / crf=21.5 / qcomp=0.60 / qpmin=0 / qpmax=69 / qpstep=4 / ip_ratio=1.40 / pb_ratio=1.25 / aq=2:1.00Language : EnglishEncoded date : UTC 2017-02-01 07:31:38Tagged date : UTC 2017-02-01 07:32:19Color range : LimitedColor primaries : BT.709Transfer characteristics : BT.709Matrix coefficients : BT.709

Audio #1ID : 2Format : AACFormat/Info : Advanced Audio CodecFormat profile : LCCodec ID : 40Duration : 1 h 21 minBit rate mode : VariableBit rate : 128 kb/sMaximum bit rate : 132 kb/sChannel(s) : 2 channelsChannel positions : Front: L RSampling rate : 48.0 kHzFrame rate : 46.875 FPS (1024 spf)Compression mode : LossyStream size : 75.0 MiB (5%)Title : MVO CTC / MVO CTCLanguage : RussianDefault : YesAlternate group : 1Encoded date : UTC 2017-02-01 07:31:56Tagged date : UTC 2017-02-01 07:32:19

Audio #2ID : 3Format : AACFormat/Info : Advanced Audio CodecFormat profile : LCCodec ID : 40Duration : 1 h 21 minBit rate mode : VariableBit rate : 128 kb/sMaximum bit rate : 133 kb/sChannel(s) : 2 channelsChannel positions : Front: L RSampling rate : 48.0 kHzFrame rate : 46.875 FPS (1024 spf)Compression mode : LossyStream size : 74.9 MiB (5%)Title : VO Tolbin / VO TolbinLanguage : RussianDefault : NoAlternate group : 1Encoded date : UTC 2017-02-01 07:32:05Tagged date : UTC 2017-02-01 07:32:19

Audio #3ID : 4Format : AACFormat/Info : Advanced Audio CodecFormat profile : LCCodec ID : 40Duration : 1 h 21 minBit rate mode : VariableBit rate : 128 kb/sMaximum bit rate : 132 kb/sChannel(s) : 2 channelsChannel positions : Front: L RSampling rate : 48.0 kHzFrame rate : 46.875 FPS (1024 spf)Compression mode : LossyStream size : 75.0 MiB (5%)Title : MVO INTER / MVO INTERLanguage : UkrainianDefault : NoAlternate group : 1Encoded date : UTC 2017-02-01 07:32:11Tagged date : UTC 2017-02-01 07:32:19

Audio #4ID : 5Format : AACFormat/Info : Advanced Audio CodecFormat profile : LCCodec ID : 40Duration : 1 h 21 minBit rate mode : VariableBit rate : 128 kb/sMaximum bit rate : 133 kb/sChannel(s) : 2 channelsChannel positions : Front: L RSampling rate : 48.0 kHzFrame rate : 46.875 FPS (1024 spf)Compression mode : LossyStream size : 75.0 MiB (5%)Title : MVO 1_1 / MVO 1_1Language : UkrainianDefault : NoAlternate group : 1Encoded date : UTC 2017-02-01 07:32:16Tagged date : UTC 2017-02-01 07:32:19
<div class="clear" style="height: 8px;"></div>

Трекер:  [ 01-Фев-2017 10:00 ]

  

Скачать .torrent

Размер .torrent файла 15 KB


Размер: 1.5 GB
Хэш (hash) релиза: e31f0a9b5427d789daf2cbfd7d0a207dd75524b3

Торренты, похожие на [VIDEO] Частный курорт Private Resort скачать торрент

Форум Название Автор Размер S L Добавлен
Видео (Фильмы/Клипы) ·· [VIDEO] Частный курорт / Private Resort (Джордж Бауэрс / George Bowers) [1985, комедия, HDRip] [MP4, 480x] MVO CTC Galfimbul 377541540360 MB 0 0 1486048486

18:14

2-Фев-17

Еще никто не оставлял запись к записи скачать торрент [VIDEO] Частный курорт Private Resort . Будь первым!

!Обратная связь