The Flash | Archer's Voice | Scarica APK

Скачать через торрент [VIDEO] Город, в котором меня нет Bokudake ga inai machi бесплатно русская версия torrent активатор

Статистика раздачи
Размер:  978 MB   |    Зарегистрирован:  1 год 5 месяцев   |    .torrent скачан:  30 раз   |   
Раздают:  1  
   
загрузка...
 
Автор Сообщение

Galfimbul

avatar Galfimbul


<span class="post-font-serif1">Город, в котором меня нет / Bokudake ga inai machi / The Town Where Only I Am Missing / Erased</span>

<span class="post-font-serif1">Год выпуска: 2016
Страна: Япония
Жанр: фантастика, триллер, драма, детектив
Продолжительность: 02:00:27
Перевод: Любительский (многоголосый закадровый) STEPonee
Cубтитры: нет</span>
<span class="post-font-serif1">Режиссеры: Юитиро Хиракава / Yuichiro Hirakawa</span>
<span class="post-font-serif1">В ролях: Тацуя Фудзивара, Касуми Аримура, Мицухиро Оикава, Юрико Исида, Тэтта Сугимото, Рио Судзуки, Цубаса Накагава, Кэнто Хаяси, Сэйдзи Фукуси, Канна Мори и другие .</span>
<span class="post-font-serif1">Описание: Сатору Фудзинума — малоуспешный художник, обожающий рисовать мангу. Ему приходится подрабатывать в обычной службе доставки и хранить удивительный секрет своей возможности телепортироваться в то или иное место, где происходит драматическое событие, чтобы предотвратить чью-нибудь смерть или катастрофу. Свой дар молодой человек контролировать не может, и поэтому он не возвращается до тех пор, пока этих происшествий не удается избежать.

Однажды Сатору возвращается на 18 лет назад с целью предотвратить убийства детей, совершённые серийным убийцей. Также молодому человеку нужно спасти свою мать, которая столкнулась лицом к лицу с этим чудовищным преступником, что стоило ей жизни.</span>

<span class="post-font-serif1">Качество: HDRip / <a href="viewtopic.php?t=5293255" class="postLink">рип с BDRip 720p</a>
Формат: MP4
Видео кодек: H.264
Аудио кодек: AAC
Видео: 960x516 AR:1.85 1000 kbps 23.976 fps
Аудио: [Русский] 2ch 48 kHz 128 kbps - [MVO] Любительский (многоголосый закадровый) STEPonee</span>
avs [info]: 960x516p 1:1 @ 2997/125 fps (cfr)
x264 [info]: using SAR=1/1
x264 [info]: using cpu capabilities: MMX2 SSE2Fast SSSE3 SSE4.2 AVX FMA3 AVX2 LZCNT BMI2
x264 [info]: profile High, level 4.1

x264 [info]: frame I:1342 Avg QP:17.15 size: 61748
x264 [info]: frame P:39384 Avg QP:21.40 size: 11890
x264 [info]: frame B:132554 Avg QP:22.90 size: 2653
x264 [info]: consecutive B-frames: 3.0% 2.7% 7.6% 20.3% 21.8% 35.2% 6.0% 1.7% 1.3% 0.2%
x264 [info]: mb I I16..4: 6.8% 70.1% 23.0%
x264 [info]: mb P I16..4: 0.9% 4.2% 1.1% P16..4: 36.4% 35.7% 9.2% 0.0% 0.0% skip:12.4%
x264 [info]: mb B I16..4: 0.1% 0.3% 0.1% B16..8: 32.7% 12.0% 1.3% direct: 1.7% skip:51.8% L0:39.9% L1:51.2% BI: 8.9%
x264 [info]: 8x8 transform intra:67.9% inter:60.1%
x264 [info]: direct mvs spatial:96.0% temporal:4.0%
x264 [info]: coded y,uvDC,uvAC intra: 76.6% 75.2% 46.0% inter: 9.0% 7.5% 2.9%
x264 [info]: i16 v,h,dc,p: 21% 14% 3% 62%
x264 [info]: i8 v,h,dc,ddl,ddr,vr,hd,vl,hu: 13% 7% 6% 9% 13% 14% 13% 12% 12%
x264 [info]: i4 v,h,dc,ddl,ddr,vr,hd,vl,hu: 30% 8% 5% 7% 11% 11% 10% 9% 9%
x264 [info]: i8c dc,h,v,p: 30% 28% 23% 18%
x264 [info]: Weighted P-Frames: Y:4.3% UV:2.5%
x264 [info]: ref P L0: 55.1% 10.6% 16.3% 5.5% 4.5% 3.2% 2.9% 1.7% 0.1% 0.0%
x264 [info]: ref B L0: 82.2% 8.8% 4.1% 2.0% 1.5% 0.9% 0.4%
x264 [info]: ref B L1: 95.7% 4.3%
x264 [info]: kb/s:999.33

encoded 173280 frames, 17.06 fps, 999.33 kb/s

GeneralComplete name : D:\Torrents\The Town Where Only I Am Missing.2016.HDRip.x264.960x.rip by Frost O.S.mp4Format : MPEG-4Format profile : Base MediaCodec ID : isom (isom/avc1/iso2)File size : 978 MiBDuration : 2 h 0 minOverall bit rate mode : VariableOverall bit rate : 1 135 kb/sMovie name : The Town Where Only I Am Missing 2016 HDRip x264 960x rip by Frost O SGenre : DramaContentType : Short FilmEncoded date : UTC 2017-01-31 13:57:18Tagged date : UTC 2017-01-31 13:58:20Writing application : MkvToMp4 version: 0.224 (x64)Cover : YesComment : rip by Frost O.SLongDescription : Сатору Фудзинума — малоуспешный художник, обожающий рисовать мангу. Ему приходится подрабатывать в обычной службе доставки и хранить удивительный секрет своей возможности телепортироваться в то или иное место, где происходит драматическое событие, чтобы предотвратить чью-нибудь смерть или катастрофу. Свой дар молодой человек контролировать не может, и поэтому он не возвращается до тех пор, пока этих происшествий не удается избежать. Однажды Сатору возвращается на 18 лет назад с целью предотвратить убийства детей, совершённые серийным убийцей. Также молодому человеку нужно спасти свою мать, которая столкнулась лицом к лицу с этим чудовищным преступником, что стоило ей жизни.

VideoID : 1Format : AVCFormat/Info : Advanced Video CodecFormat profile : [email protected] settings, CABAC : YesFormat settings, ReFrames : 8 framesCodec ID : avc1Codec ID/Info : Advanced Video CodingDuration : 2 h 0 minBit rate : 1 000 kb/sMaximum bit rate : 3 900 kb/sWidth : 960 pixelsHeight : 516 pixelsDisplay aspect ratio : 1.85:1Frame rate mode : ConstantFrame rate : 23.976 (24000/1001) FPSOriginal frame rate : 23.976 (23976/1000) FPSColor space : YUVChroma subsampling : 4:2:0Bit depth : 8 bitsScan type : ProgressiveBits/(Pixel*Frame) : 0.084Stream size : 861 MiB (88%)Writing library : x264 core 148 r2705 3f5ed56Encoding settings : cabac=1 / ref=8 / deblock=1:-2:-2 / analyse=0x3:0x113 / me=umh / subme=11 / psy=1 / psy_rd=0.90:0.00 / mixed_ref=1 / me_range=32 / chroma_me=1 / trellis=2 / 8x8dct=1 / cqm=0 / deadzone=21,11 / fast_pskip=0 / chroma_qp_offset=-2 / threads=6 / lookahead_threads=1 / sliced_threads=0 / nr=0 / decimate=0 / interlaced=0 / bluray_compat=0 / constrained_intra=0 / bframes=9 / b_pyramid=2 / b_adapt=2 / b_bias=0 / direct=3 / weightb=1 / open_gop=0 / weightp=2 / keyint=250 / keyint_min=23 / scenecut=40 / intra_refresh=0 / rc=2pass / mbtree=0 / bitrate=1000 / ratetol=1.0 / qcomp=0.60 / qpmin=0 / qpmax=69 / qpstep=4 / cplxblur=20.0 / qblur=0.5 / ip_ratio=1.40 / pb_ratio=1.30 / aq=1:0.90Language : EnglishEncoded date : UTC 2017-01-31 13:57:18Tagged date : UTC 2017-01-31 13:57:51Color range : LimitedColor primaries : BT.709Transfer characteristics : BT.709Matrix coefficients : BT.709

AudioID : 2Format : AACFormat/Info : Advanced Audio CodecFormat profile : LCCodec ID : 40Duration : 2 h 0 minBit rate mode : VariableBit rate : 128 kb/sMaximum bit rate : 135 kb/sChannel(s) : 2 channelsChannel positions : Front: L RSampling rate : 48.0 kHzFrame rate : 46.875 FPS (1024 spf)Compression mode : LossyStream size : 110 MiB (11%)Title : STEPonee / STEPoneeLanguage : RussianDefault : YesAlternate group : 1Encoded date : UTC 2017-01-31 13:57:48Tagged date : UTC 2017-01-31 13:57:51
<div class="clear" style="height: 8px;"></div>

Трекер:  [ 31-Янв-2017 17:00 ]

  

Скачать .torrent

Размер .torrent файла 19 KB


Размер: 978 MB
Хэш (hash) релиза: 19c8186a653bd8d4d880f4fb4bae99b78c3aa57a

Еще никто не оставлял запись к записи скачать торрент [VIDEO] Город, в котором меня нет Bokudake ga inai machi . Будь первым!

!Обратная связь