Mandy Patinkin | Naruto: Shippuuden Movie 5 – Blood Prison | Running Man Episode 345

Скачать через торрент [VIDEO] Джек Ричер 2: Никогда не возвращайся Jack Reacher: Never Go Back бесплатно русская версия torrent активатор

Статистика раздачи
Размер:  2.57 GB   |    Зарегистрирован:  1 год 5 месяцев   |    .torrent скачан:  56 раз   |   
Раздают:  1  
   
загрузка...
 
Автор Сообщение

Galfimbul

avatar Galfimbul


Джек Ричер 2: Никогда не возвращайся / Jack Reacher: Never Go Back
«Не уступай, не сдавайся, не возвращайся»
Год выпуска: 20 октября 2016
Оригинальное название: Jack Reacher: Never Go Back
Страна: Китай, США
Жанр: боевик, триллер, криминал, детектив, приключения
Возраст: 16+

Режиссер: Эдвард Цвик / Edward Zwick

В ролях: Том Круз, Коби Смолдерс, Роберт Неппер, Даника Ярош, Нинджа Н. Деву, Элдис Ходж, Холт МакКэллани, Мэдалин Хорчер, Чейз Савой, Сью-Линн Ансари

Описание: Экс-военный Джек Ричер приезжает в Вашингтон, чтобы впервые встретиться с майором Сьюзен Тернер, которая возглавила его бывшее подразделение и не раз выручала его в непростых ситуациях. По странному стечению обстоятельств буквально накануне его визита майора арестовывают по обвинению в измене… Ричеру, уверенному в невиновности Сьюзен, предстоит освободить ее и раскрыть заговор, ниточки которого тянутся на самый верх. Стремясь докопаться до правды, он также делает поразительное открытие, способное раз и навсегда изменить его жизнь…

Продолжительность: 01:58:09
Перевод: Дублированный [Лицензия]
Оригинальная дорожка: есть

Автор рипа:

Качество видео: BDRip Исходник: Blu-Ray Remux (1080p) Формат: mp4
Видео кодек: MPEG-4 AVC Аудио кодек: AAC
Видео: 1280x536 (2.40:1) at 23.976 fps, AVC at 2 847 kbps avg, 0.173 bit/pixel
Аудио №1 Rus: 48.0 KHz, AAC, 2 ch, 128.0 Kbps
Аудио №2 Eng: 48.0 KHz, AAC, 2 ch, 128.0 Kbps
Субтитры: русские (форсированные, полные), английские (полные)
Навигация по главам: есть
Размер: 2.57 GiB
avs [info]: 1280x536p 1:1 @ 24000/1001 fps (cfr)
x264 [info]: using SAR=1/1
x264 [info]: using cpu capabilities: MMX2 SSE2Fast SSSE3 Cache64
x264 [info]: profile High, level 4.1
x264 [info]: frame I:1815 Avg QP:15.82 size:115667
x264 [info]: frame P:36929 Avg QP:18.97 size: 28669
x264 [info]: frame B:131221 Avg QP:21.16 size: 9558
x264 [info]: consecutive B-frames: 2.2% 2.8% 7.9% 16.9% 21.3% 44.4% 4.3%
x264 [info]: mb I I16..4: 13.3% 65.0% 21.8%
x264 [info]: mb P I16..4: 1.8% 13.9% 1.4% P16..4: 39.0% 19.8% 12.3% 0.0% 0.0% skip:11.9%
x264 [info]: mb B I16..4: 0.1% 1.9% 0.1% B16..8: 41.0% 6.1% 1.3% direct: 5.7% skip:43.7% L0:43.2% L1:48.7% BI: 8.0%
x264 [info]: 8x8 transform intra:80.6% inter:67.9%
x264 [info]: coded y,uvDC,uvAC intra: 83.1% 85.2% 64.8% inter: 19.6% 23.6% 3.3%
x264 [info]: i16 v,h,dc,p: 38% 15% 17% 30%
x264 [info]: i8 v,h,dc,ddl,ddr,vr,hd,vl,hu: 16% 12% 35% 5% 6% 7% 6% 6% 7%
x264 [info]: i4 v,h,dc,ddl,ddr,vr,hd,vl,hu: 23% 16% 15% 6% 9% 9% 8% 7% 7%
x264 [info]: i8c dc,h,v,p: 54% 18% 19% 9%
x264 [info]: Weighted P-Frames: Y:3.3% UV:2.2%
x264 [info]: ref P L0: 46.8% 10.4% 18.1% 6.1% 5.4% 3.7% 3.6% 2.0% 1.9% 1.7% 0.3% 0.0%
x264 [info]: ref B L0: 80.5% 9.5% 3.9% 1.9% 1.3% 1.2% 1.0% 0.5% 0.2%
x264 [info]: ref B L1: 94.4% 5.6%
x264 [info]: kb/s:2847.14
encoded 169965 frames, 2.25 fps, 2847.14 kb/s
GeneralFormat : MPEG-4Format profile : Base MediaCodec ID : isom (isom)File size : 2.57 GiBDuration : 1 h 58 minOverall bit rate mode : VariableOverall bit rate : 3 115 kb/sMovie name : Джек Ричер 2: Никогда не возвращайся | KinoGadgetPerformer : Эдвард ЦвикDirector : Эдвард ЦвикActor : Том Круз / Коби Смолдерс / Роберт Неппер / Даника Ярош / Нинджа Н. Деву / Элдис Ходж / Холт МакКэллани / Мэдалин Хорчер / Чейз Савой / Сью-Линн АнсариScreenplay by : Ричард Уэнк / Эдвард Цвик / Маршалл ХерсковицProducer : Кристофер МакКуорри / Том Круз / Дэвид ЭллисонGenre : Action, Adventure, CrimeContentType : Short FilmRecorded date : 2016Encoded date : UTC 2017-01-31 14:28:22Tagged date : UTC 2017-01-31 14:35:18Cover : YesContentRating : mpaa|PG-13|300|LongDescription : Экс-военный Джек Ричер приезжает в Вашингтон, чтобы впервые встретиться с майором Сьюзен Тернер, которая возглавила его бывшее подразделение и не раз выручала его в непростых ситуациях. По странному стечению обстоятельств буквально накануне его визита майора арестовывают по обвинению в измене… Ричеру, уверенному в невиновности Сьюзен, предстоит освободить ее и раскрыть заговор, ниточки которого тянутся на самый верх. Стремясь докопаться до правды, он также делает поразительное открытие, способное раз и навсегда изменить его жизнь…HDVideo : Yes

VideoID : 1Format : AVCFormat/Info : Advanced Video CodecFormat profile : [email protected] settings, CABAC : YesFormat settings, ReFrames : 10 framesCodec ID : avc1Codec ID/Info : Advanced Video CodingDuration : 1 h 58 minBit rate : 2 847 kb/sMaximum bit rate : 20.7 Mb/sWidth : 1 280 pixelsHeight : 536 pixelsDisplay aspect ratio : 2.40:1Frame rate mode : ConstantFrame rate : 23.976 (24000/1001) FPSColor space : YUVChroma subsampling : 4:2:0Bit depth : 8 bitsScan type : ProgressiveBits/(Pixel*Frame) : 0.173Stream size : 2.35 GiB (91%)Writing library : x264 core 148 r2638 7599210Encoding settings : cabac=1 / ref=10 / deblock=1:-1:-1 / analyse=0x3:0x113 / me=umh / subme=7 / psy=1 / psy_rd=1.00:0.15 / mixed_ref=1 / me_range=32 / chroma_me=1 / trellis=2 / 8x8dct=1 / cqm=0 / deadzone=21,11 / fast_pskip=1 / chroma_qp_offset=-3 / threads=3 / lookahead_threads=1 / sliced_threads=0 / nr=0 / decimate=1 / interlaced=0 / bluray_compat=0 / constrained_intra=0 / bframes=6 / b_pyramid=2 / b_adapt=2 / b_bias=0 / direct=1 / weightb=1 / open_gop=0 / weightp=2 / keyint=240 / keyint_min=23 / scenecut=40 / intra_refresh=0 / rc_lookahead=40 / rc=crf / mbtree=1 / crf=19.0 / qcomp=0.60 / qpmin=0 / qpmax=69 / qpstep=4 / vbv_maxrate=62500 / vbv_bufsize=78125 / crf_max=0.0 / nal_hrd=none / filler=0 / ip_ratio=1.40 / aq=1:1.00Encoded date : UTC 2017-01-31 13:50:59Tagged date : UTC 2017-01-31 14:29:26

Audio #1ID : 2Format : AACFormat/Info : Advanced Audio CodecFormat profile : LCCodec ID : 40Duration : 1 h 58 minBit rate mode : VariableBit rate : 128 kb/sMaximum bit rate : 135 kb/sChannel(s) : 2 channelsChannel positions : Front: L RSampling rate : 48.0 kHzFrame rate : 46.875 FPS (1024 spf)Compression mode : LossyStream size : 108 MiB (4%)Title : Dub [license]Language : RussianEncoded date : UTC 2017-01-31 13:55:29Tagged date : UTC 2017-01-31 14:29:26

Audio #2ID : 3Format : AACFormat/Info : Advanced Audio CodecFormat profile : LCCodec ID : 40Duration : 1 h 58 minBit rate mode : VariableBit rate : 128 kb/sMaximum bit rate : 135 kb/sChannel(s) : 2 channelsChannel positions : Front: L RSampling rate : 48.0 kHzFrame rate : 46.875 FPS (1024 spf)Compression mode : LossyStream size : 108 MiB (4%)Language : EnglishEncoded date : UTC 2017-01-31 14:03:17Tagged date : UTC 2017-01-31 14:29:26

Text #1ID : 4Format : Timed TextCodec ID : tx3gDuration : 1 h 17 minBit rate mode : VariableBit rate : 1 b/sStream size : 433 Bytes (0%)Title : ForcedLanguage : RussianForced : NoEncoded date : UTC 2017-01-31 14:29:26Tagged date : UTC 2017-01-31 14:29:26

Text #2ID : 5Format : Timed TextCodec ID : tx3gDuration : 1 h 53 minBit rate mode : VariableBit rate : 86 b/sStream size : 71.4 KiB (0%)Title : FullLanguage : RussianForced : NoEncoded date : UTC 2017-01-31 14:29:26Tagged date : UTC 2017-01-31 14:29:26

Text #3ID : 6Format : Timed TextCodec ID : tx3gDuration : 1 h 52 minBit rate mode : VariableBit rate : 58 b/sStream size : 47.6 KiB (0%)Title : FullLanguage : EnglishForced : NoEncoded date : UTC 2017-01-31 14:29:26Tagged date : UTC 2017-01-31 14:29:26

Menu00:00:00.000 : 00:00:00.00000:07:00.629 : 00:07:00.62900:15:19.877 : 00:15:19.87700:20:33.858 : 00:20:33.85800:29:04.576 : 00:29:04.57600:34:35.740 : 00:34:35.74000:42:40.141 : 00:42:40.14100:49:28.007 : 00:49:28.00700:58:44.563 : 00:58:44.56301:03:10.161 : 01:03:10.16101:09:35.755 : 01:09:35.75501:15:05.334 : 01:15:05.33401:21:59.665 : 01:21:59.66501:27:07.222 : 01:27:07.22201:34:14.065 : 01:34:14.06501:46:44.857 : 01:46:44.85701:53:30.846 : 01:53:30.846
<a href="tracker.php?rid=39840292" class="postLink"> </a>
<div class="clear" style="height: 8px;"></div>

Трекер:  [ 31-Янв-2017 17:00 ]

  

Скачать .torrent

Размер .torrent файла 13 KB


Размер: 2.57 GB
Хэш (hash) релиза: 941545eacbc82be7415a43b334f98aa50feb5b27

Еще никто не оставлял запись к записи скачать торрент [VIDEO] Джек Ричер 2: Никогда не возвращайся Jack Reacher: Never Go Back . Будь первым!

!Обратная связь