Sams teach yourself google in 10 minutes patrice anne rutledge | Pasin Kuansataporn | Love Cheque Charge

Скачать через торрент [VIDEO] Город, в котором меня нет Bokudake ga inai machi бесплатно русская версия torrent активатор

Статистика раздачи
Размер:  432 MB   |    Зарегистрирован:  1 год 5 месяцев   |    .torrent скачан:  18 раз   |   
Раздают:  1  
   
загрузка...
 
Автор Сообщение

Galfimbul

avatar Galfimbul


<span class="post-font-serif1">Город, в котором меня нет / Bokudake ga inai machi / The Town Where Only I Am Missing / Erased</span>

<span class="post-font-serif1">Год выпуска: 2016
Страна: Япония
Жанр: фантастика, триллер, драма, детектив
Продолжительность:
Перевод: Любительский (многоголосый закадровый) STEPonee
Cубтитры: нет</span>
<span class="post-font-serif1">Режиссеры: Юитиро Хиракава / Yuichiro Hirakawa</span>
<span class="post-font-serif1">В ролях: Тацуя Фудзивара, Касуми Аримура, Мицухиро Оикава, Юрико Исида, Тэтта Сугимото, Рио Судзуки, Цубаса Накагава, Кэнто Хаяси, Сэйдзи Фукуси, Канна Мори и другие .</span>
<span class="post-font-serif1">Описание: Сатору Фудзинума — малоуспешный художник, обожающий рисовать мангу. Ему приходится подрабатывать в обычной службе доставки и хранить удивительный секрет своей возможности телепортироваться в то или иное место, где происходит драматическое событие, чтобы предотвратить чью-нибудь смерть или катастрофу. Свой дар молодой человек контролировать не может, и поэтому он не возвращается до тех пор, пока этих происшествий не удается избежать.

Однажды Сатору возвращается на 18 лет назад с целью предотвратить убийства детей, совершённые серийным убийцей. Также молодому человеку нужно спасти свою мать, которая столкнулась лицом к лицу с этим чудовищным преступником, что стоило ей жизни.</span>

<span class="post-font-serif1">Качество: HDRip / <a href="viewtopic.php?t=5293255" class="postLink">рип с BDRip 720p</a>
Формат: MP4
Видео кодек: XviD
Аудио кодек: AAC
Видео: 480x256 AR:1.85 366 kbps 23.976 fps
Аудио: [Русский] 2ch 48 kHz 128 kbps - [MVO] Любительский (многоголосый закадровый) STEPonee</span>
GeneralComplete name : D:\Torrents\The Town Where Only I Am Missing.2016.HDRip.XviD.480x.rip by Frost O.S.mp4Format : MPEG-4Format profile : Base MediaCodec ID : isom (isom/iso2)File size : 432 MiBDuration : 2 h 0 minOverall bit rate mode : VariableOverall bit rate : 502 kb/sMovie name : The Town Where Only I Am Missing 2016 HDRip XviD 480x rip by Frost O SGenre : DramaContentType : Short FilmEncoded date : UTC 2017-01-31 14:00:20Tagged date : UTC 2017-01-31 14:00:43Writing application : MkvToMp4 version: 0.224 (x64)Cover : YesComment : rip by Frost O.SLongDescription : Сатору Фудзинума — малоуспешный художник, обожающий рисовать мангу. Ему приходится подрабатывать в обычной службе доставки и хранить удивительный секрет своей возможности телепортироваться в то или иное место, где происходит драматическое событие, чтобы предотвратить чью-нибудь смерть или катастрофу. Свой дар молодой человек контролировать не может, и поэтому он не возвращается до тех пор, пока этих происшествий не удается избежать. Однажды Сатору возвращается на 18 лет назад с целью предотвратить убийства детей, совершённые серийным убийцей. Также молодому человеку нужно спасти свою мать, которая столкнулась лицом к лицу с этим чудовищным преступником, что стоило ей жизни.

VideoID : 1Format : MPEG-4 VisualFormat profile : Advanced [email protected] settings, BVOP : YesFormat settings, QPel : NoFormat settings, GMC : No warppointsFormat settings, Matrix : CustomCodec ID : 20Duration : 2 h 0 minBit rate mode : VariableBit rate : 366 kb/sMaximum bit rate : 194 Mb/sWidth : 480 pixelsHeight : 256 pixelsDisplay aspect ratio : 1.85:1Frame rate mode : VariableFrame rate : 23.976 (23976/1000) FPSMinimum frame rate : 11.988 FPSMaximum frame rate : 23.976 FPSColor space : YUVChroma subsampling : 4:2:0Bit depth : 8 bitsScan type : ProgressiveCompression mode : LossyBits/(Pixel*Frame) : 0.124Stream size : 315 MiB (73%)Title : avi_GPAC0.5.2_DEV_rev248_g39d5978_masterWriting library : XviD 1.2.1 (UTC 2008-12-04)Language : EnglishTagged date : UTC 2017-01-31 14:00:32

AudioID : 2Format : AACFormat/Info : Advanced Audio CodecFormat profile : LCCodec ID : 40Duration : 2 h 0 minBit rate mode : VariableBit rate : 128 kb/sMaximum bit rate : 135 kb/sChannel(s) : 2 channelsChannel positions : Front: L RSampling rate : 48.0 kHzFrame rate : 46.875 FPS (1024 spf)Compression mode : LossyStream size : 110 MiB (26%)Title : STEPonee / STEPoneeLanguage : RussianDefault : YesAlternate group : 1Encoded date : UTC 2017-01-31 14:00:23Tagged date : UTC 2017-01-31 14:00:32
<div class="clear" style="height: 8px;"></div>

Трекер:  [ 31-Янв-2017 16:00 ]

  

Скачать .torrent

Размер .torrent файла 17 KB


Размер: 432 MB
Хэш (hash) релиза: 6668e804215f2a7fdb4c2b2adfb2c831ca692a6c

Еще никто не оставлял запись к записи скачать торрент [VIDEO] Город, в котором меня нет Bokudake ga inai machi . Будь первым!

!Обратная связь