IMDb: 7.7 S16E1 Ghost Adventures - Season 16 | Elfen Lied | Dan Cohen

Скачать через торрент [VIDEO] Тень вампира Shadow of the Vampire бесплатно русская версия torrent активатор

Статистика раздачи
Размер:  1.13 GB   |    Зарегистрирован:  1 год 5 месяцев   |    .torrent скачан:  24 раза   |   
Раздают:  1  
   
загрузка...
 
Автор Сообщение

Galfimbul

avatar Galfimbul


<span class="post-font-serif1">Тень вампира / Shadow of the Vampire</span>

<span class="post-font-serif1">Год выпуска: 2000
Страна: США, Великобритания, Люксембург
Жанр: ужасы, драма
Продолжительность: 01:35:24
Перевод №1: Русский Профессиональный (полное дублирование)
Перевод №2: Русский Профессиональный (двухголосый, закадровый) Pyramid
Оригинальная дорожка: Есть
Cубтитры: русские, английские</span>
<span class="post-font-serif1">Режиссер: Э. Елиас Мериге / E. Elias Merhige</span>
<span class="post-font-serif1">В ролях: Джон Малкович, Уиллем Дефо, Удо Кир, Кэри Элвис, Катрин МакКормак, Эдди Иззард, Аден Джиллетт, Николас Эллиотт, Ронан Вайберт, Софи Ланжевен и другие .</span>
<span class="post-font-serif1">Описание: В 1921 году великий немецкий режиссер Ф. В. Мурнау снял один из самых знаменитых и самых страшных фильмов ужасов — «Носферату». У зрителей стыла в жилах кровь, когда они видели на экране сгорбленный силуэт коварного вампира, графа Орлока. Но вскоре их ужас усилился, когда пошли слухи о том, что главную роль в фильме сыграл настоящий вампир, утолявший свой вековой голод горячей кровью актеров и членов съемочной группы.

Перед вами уникальная попытка восстановить ход событий, сопутствовавших мучительной работе над этим шедевром, по крупицам собравшим всё, что было известно о таинственных событиях, якобы произошедших на съемках в туманных горах Чехословакии, где до сих пор живы легенды о бессмертном демоне ночи — Носферату.</span>
<span class="post-font-serif1">Доп. инфо: На БД вышла версия отличающаяся от той, что издана у нас на ДВД. Есть 2 непереведенных момента, общей продолжительностью 3 мин 37 сек. Английских и русских субтитров на эти моменты тоже нет.</span>
<span class="post-font-serif1">Релиз группы </span>
<span class="post-font-serif1">Сюжет фильма частично основан на легенде, согласно кото­рой актер Макс Шрек так достоверно создал образ Дракулы в картине «Носферату, симфония ужаса» (1922), о съемках которой и идет речь в фильме, потому что сам был вампиром.
Роль Макса Шрека была написана специально для Уиллема Дэфо.
В сценах, где актерам пытаются создать нужное настроение, звучит музыка Джона Уильямса, написанная им для фильма «Дракула» (1979).
Увидев Уиллема Дэфо в этом фильме, продюсеры «Человека-паука» (2002) пригласили его на роль главного злодея.
По ходу фильма видно, что локомотив, который везет съемочную группу Фридриха Мурнау в Чехословакию, назван «Харон». В греческой мифологии — божество, перевозящее души людей по реке Стикс в царство мертвых.
Съемки фильма проходили в Люксембурге. Начались 18 апреля 1999 года, а окончились в июне того же года.
В картине присутствуют две параллельные линии – процесс съемок фильма и настоящие кадры из «Носферату, симфония ужаса» (1922).</span>

<span class="post-font-serif1">Качество: BDRip / <a href="viewtopic.php?t=1989360" class="postLink">рип с BDRemux 1080p</a>
Формат: MP4
Видео кодек: H.264
Аудио кодек: AAC
Видео: 960x430 AR:2.25 1300 kbps 23.976 fps
Аудио №1: [Russian] 2ch 48 kHz 128 kbps - Профессиональный (полное дублирование)
Аудио №2: [Russian] 2ch 48 kHz 128 kbps - Профессиональный (двухголосый, закадровый) Pyramid
Аудио №3: [English] 2ch 48 kHz 128 kbps - Оригинал</span>
avs [info]: 960x430p 1:1 @ 2997/125 fps (cfr)
x264 [info]: using SAR=1/1
x264 [info]: using cpu capabilities: MMX2 SSE2Fast SSSE3 SSE4.2 AVX FMA3 AVX2 LZCNT BMI2
x264 [info]: profile High, level 4.1

x264 [info]: frame I:886 Avg QP:17.67 size: 36552
x264 [info]: frame P:27582 Avg QP:19.46 size: 13642
x264 [info]: frame B:108759 Avg QP:22.49 size: 4792
x264 [info]: consecutive B-frames: 1.1% 0.7% 2.4% 28.8% 15.6% 41.1% 4.4% 4.7% 1.3%
x264 [info]: mb I I16..4: 9.2% 79.7% 11.1%
x264 [info]: mb P I16..4: 1.0% 6.2% 0.6% P16..4: 33.4% 36.1% 10.5% 0.0% 0.0% skip:12.2%
x264 [info]: mb B I16..4: 0.1% 0.7% 0.1% B16..8: 32.9% 13.5% 1.7% direct: 4.3% skip:46.7% L0:44.0% L1:46.0% BI:10.0%
x264 [info]: 8x8 transform intra:79.3% inter:65.2%
x264 [info]: coded y,uvDC,uvAC intra: 76.6% 63.4% 34.7% inter: 19.5% 8.5% 0.8%
x264 [info]: i16 v,h,dc,p: 70% 13% 7% 10%
x264 [info]: i8 v,h,dc,ddl,ddr,vr,hd,vl,hu: 8% 6% 12% 10% 15% 13% 12% 12% 12%
x264 [info]: i4 v,h,dc,ddl,ddr,vr,hd,vl,hu: 8% 6% 39% 6% 10% 9% 8% 7% 7%
x264 [info]: i8c dc,h,v,p: 33% 33% 19% 15%
x264 [info]: Weighted P-Frames: Y:22.5% UV:11.7%
x264 [info]: ref P L0: 41.1% 9.2% 18.9% 8.0% 7.1% 5.2% 4.9% 2.4% 2.6% 0.5% 0.0%
x264 [info]: ref B L0: 72.5% 11.5% 6.2% 3.3% 2.6% 2.2% 1.3% 0.5%
x264 [info]: ref B L1: 95.0% 5.0%
x264 [info]: kb/s:1299.74

encoded 137227 frames, 13.85 fps, 1299.74 kb/s
GeneralComplete name : D:\Torrents\Shadow of the Vampire.2000.BDRip.x264.960x.rip by Frost O.S.mp4Format : MPEG-4Format profile : Base MediaCodec ID : isom (isom/avc1/iso2)File size : 1.13 GiBDuration : 1 h 35 minOverall bit rate mode : VariableOverall bit rate : 1 699 kb/sMovie name : Shadow of the Vampire 2000 BDRip x264 960x rip by Frost O SGenre : HorrorContentType : Short FilmEncoded date : UTC 2017-01-31 12:43:28Tagged date : UTC 2017-01-31 12:45:21Writing application : MkvToMp4 version: 0.224 (x64)Cover : YesComment : rip by Frost O.SLongDescription : В 1921 году великий немецкий режиссер Ф. В. Мурнау снял один из самых знаменитых и самых страшных фильмов ужасов — «Носферату». У зрителей стыла в жилах кровь, когда они видели на экране сгорбленный силуэт коварного вампира, графа Орлока. Но вскоре их ужас усилился, когда пошли слухи о том, что главную роль в фильме сыграл настоящий вампир, утолявший свой вековой голод горячей кровью актеров и членов съемочной группы. Перед вами уникальная попытка восстановить ход событий, сопутствовавших мучительной работе над этим шедевром, по крупицам собравшим всё, что было известно о таинственных событиях, якобы произошедших на съемках в туманных горах Чехословакии, где до сих пор живы легенды о бессмертном демоне ночи — Носферату.

VideoID : 1Format : AVCFormat/Info : Advanced Video CodecFormat profile : [email protected] settings, CABAC : YesFormat settings, ReFrames : 9 framesCodec ID : avc1Codec ID/Info : Advanced Video CodingDuration : 1 h 35 minBit rate : 1 300 kb/sMaximum bit rate : 6 063 kb/sWidth : 960 pixelsHeight : 430 pixelsDisplay aspect ratio : 2.25:1Frame rate mode : ConstantFrame rate : 23.976 (24000/1001) FPSOriginal frame rate : 23.976 (23976/1000) FPSColor space : YUVChroma subsampling : 4:2:0Bit depth : 8 bitsScan type : ProgressiveBits/(Pixel*Frame) : 0.131Stream size : 887 MiB (77%)Writing library : x264 core 148 r2705 3f5ed56Encoding settings : cabac=1 / ref=9 / deblock=1:-2:-2 / analyse=0x3:0x113 / me=umh / subme=11 / psy=1 / psy_rd=0.90:0.00 / mixed_ref=1 / me_range=32 / chroma_me=1 / trellis=2 / 8x8dct=1 / cqm=0 / deadzone=21,11 / fast_pskip=1 / chroma_qp_offset=-2 / threads=6 / lookahead_threads=1 / sliced_threads=0 / nr=0 / decimate=1 / interlaced=0 / bluray_compat=0 / constrained_intra=0 / bframes=8 / b_pyramid=2 / b_adapt=2 / b_bias=0 / direct=1 / weightb=1 / open_gop=0 / weightp=2 / keyint=250 / keyint_min=23 / scenecut=40 / intra_refresh=0 / rc=crf / mbtree=0 / crf=19.9 / qcomp=0.65 / qpmin=0 / qpmax=69 / qpstep=4 / ip_ratio=1.40 / pb_ratio=1.30 / aq=2:0.90Language : EnglishEncoded date : UTC 2017-01-31 12:43:28Tagged date : UTC 2017-01-31 12:44:19Color range : LimitedColor primaries : BT.709Transfer characteristics : BT.709Matrix coefficients : BT.709

Audio #1ID : 2Format : AACFormat/Info : Advanced Audio CodecFormat profile : LCCodec ID : 40Duration : 1 h 35 minBit rate mode : VariableBit rate : 128 kb/sMaximum bit rate : 135 kb/sChannel(s) : 2 channelsChannel positions : Front: L RSampling rate : 48.0 kHzFrame rate : 46.875 FPS (1024 spf)Compression mode : LossyStream size : 87.3 MiB (8%)Title : Dub / DubLanguage : RussianDefault : YesAlternate group : 1Encoded date : UTC 2017-01-31 12:44:03Tagged date : UTC 2017-01-31 12:44:19

Audio #2ID : 3Format : AACFormat/Info : Advanced Audio CodecFormat profile : LCCodec ID : 40Duration : 1 h 35 minBit rate mode : VariableBit rate : 128 kb/sMaximum bit rate : 135 kb/sChannel(s) : 2 channelsChannel positions : Front: L RSampling rate : 48.0 kHzFrame rate : 46.875 FPS (1024 spf)Compression mode : LossyStream size : 87.3 MiB (8%)Title : DVO_ Pyramid / DVO_ PyramidLanguage : RussianDefault : NoAlternate group : 1Encoded date : UTC 2017-01-31 12:44:08Tagged date : UTC 2017-01-31 12:44:19

Audio #3ID : 4Format : AACFormat/Info : Advanced Audio CodecFormat profile : LCCodec ID : 40Duration : 1 h 35 minBit rate mode : VariableBit rate : 128 kb/sMaximum bit rate : 135 kb/sChannel(s) : 2 channelsChannel positions : Front: L RSampling rate : 48.0 kHzFrame rate : 46.875 FPS (1024 spf)Compression mode : LossyStream size : 87.3 MiB (8%)Title : Original / OriginalLanguage : EnglishDefault : NoAlternate group : 1Encoded date : UTC 2017-01-31 12:44:13Tagged date : UTC 2017-01-31 12:44:19

Text #1ID : 5Format : Timed TextMuxing mode : sbtlCodec ID : tx3gDuration : 1 h 29 minBit rate mode : VariableBit rate : 74 b/sStream size : 48.4 KiB (0%)Language : RussianDefault : YesForced : NoAlternate group : 2Encoded date : UTC 2017-01-31 12:44:19Tagged date : UTC 2017-01-31 12:44:19

Text #2ID : 6Format : Timed TextMuxing mode : sbtlCodec ID : tx3gDuration : 1 h 29 minBit rate mode : VariableBit rate : 57 b/sStream size : 37.2 KiB (0%)Language : EnglishDefault : NoForced : NoAlternate group : 2Encoded date : UTC 2017-01-31 12:44:19Tagged date : UTC 2017-01-31 12:44:19
<div class="q-wrap">
<div class="q-head"><span><b>Цитата:</b></span></div>
<div class="q">Источник двухголосого перевода Pyramid лицензионная VHS из коллекции alenavova.</div>
</div>
<div class="clear" style="height: 8px;"></div>

Трекер:  [ 31-Янв-2017 15:30 ]

  

Скачать .torrent

Размер .torrent файла 12 KB


Размер: 1.13 GB
Хэш (hash) релиза: 869028d5a9c47a71c74aff0c6ef81a775b81b278

Торренты, похожие на [VIDEO] Тень вампира Shadow of the Vampire скачать торрент

Форум Название Автор Размер S L Добавлен
Видео (Фильмы/Клипы) ·· [VIDEO] Тень вампира / Shadow of the Vampire (Э. Елиас Мериге / E. Elias Merhige) [2000, ужасы, драма, BDRip] [MP4, 480x] Dub Galfimbul 411595974393 MB 0 0 1485869602

16:33

31-Янв-17

Еще никто не оставлял запись к записи скачать торрент [VIDEO] Тень вампира Shadow of the Vampire . Будь первым!

!Обратная связь