Saraswata Odia Byabaharika Byakarana | Alien Invasion S.U.M.1 2017 DUBBED BDRip x264-GETiT | Jai Janardhana Krishna Ringtone

Скачать через торрент [VIDEO] Тень вампира Shadow of the Vampire бесплатно русская версия torrent активатор

Статистика раздачи
Размер:  393 MB   |    Зарегистрирован:  1 год 5 месяцев   |    .torrent скачан:  23 раза   |   
Раздают:  1  
   
загрузка...
 
Автор Сообщение

Galfimbul

avatar Galfimbul


<span class="post-font-serif1">Тень вампира / Shadow of the Vampire</span>

<span class="post-font-serif1">Год выпуска: 2000
Страна: США, Великобритания, Люксембург
Жанр: ужасы, драма
Продолжительность: 01:35:24
Перевод: Русский Профессиональный (полное дублирование)
Cубтитры: нет</span>
<span class="post-font-serif1">Режиссер: Э. Елиас Мериге / E. Elias Merhige</span>
<span class="post-font-serif1">В ролях: Джон Малкович, Уиллем Дефо, Удо Кир, Кэри Элвис, Катрин МакКормак, Эдди Иззард, Аден Джиллетт, Николас Эллиотт, Ронан Вайберт, Софи Ланжевен и другие .</span>
<span class="post-font-serif1">Описание: В 1921 году великий немецкий режиссер Ф. В. Мурнау снял один из самых знаменитых и самых страшных фильмов ужасов — «Носферату». У зрителей стыла в жилах кровь, когда они видели на экране сгорбленный силуэт коварного вампира, графа Орлока. Но вскоре их ужас усилился, когда пошли слухи о том, что главную роль в фильме сыграл настоящий вампир, утолявший свой вековой голод горячей кровью актеров и членов съемочной группы.

Перед вами уникальная попытка восстановить ход событий, сопутствовавших мучительной работе над этим шедевром, по крупицам собравшим всё, что было известно о таинственных событиях, якобы произошедших на съемках в туманных горах Чехословакии, где до сих пор живы легенды о бессмертном демоне ночи — Носферату.</span>
<span class="post-font-serif1">Доп. инфо: На БД вышла версия отличающаяся от той, что издана у нас на ДВД. Есть 2 непереведенных момента, общей продолжительностью 3 мин 37 сек. Английских и русских субтитров на эти моменты тоже нет.</span>
<span class="post-font-serif1">Релиз группы </span>
<span class="post-font-serif1">Сюжет фильма частично основан на легенде, согласно кото­рой актер Макс Шрек так достоверно создал образ Дракулы в картине «Носферату, симфония ужаса» (1922), о съемках которой и идет речь в фильме, потому что сам был вампиром.
Роль Макса Шрека была написана специально для Уиллема Дэфо.
В сценах, где актерам пытаются создать нужное настроение, звучит музыка Джона Уильямса, написанная им для фильма «Дракула» (1979).
Увидев Уиллема Дэфо в этом фильме, продюсеры «Человека-паука» (2002) пригласили его на роль главного злодея.
По ходу фильма видно, что локомотив, который везет съемочную группу Фридриха Мурнау в Чехословакию, назван «Харон». В греческой мифологии — божество, перевозящее души людей по реке Стикс в царство мертвых.
Съемки фильма проходили в Люксембурге. Начались 18 апреля 1999 года, а окончились в июне того же года.
В картине присутствуют две параллельные линии – процесс съемок фильма и настоящие кадры из «Носферату, симфония ужаса» (1922).</span>

<span class="post-font-serif1">Качество: BDRip / <a href="viewtopic.php?t=1989360" class="postLink">рип с BDRemux 1080p</a>
Формат: MP4
Видео кодек: XviD
Аудио кодек: AAC
Видео: 480x216 AR:2.222 440 kbps 23.976 fps
Аудио: [Russian] 2ch 48 kHz 128 kbps - Профессиональный (полное дублирование)</span>
GeneralComplete name : D:\Torrents\Shadow of the Vampire.2000.BDRip.XviD.480x.rip by Frost O.S.mp4Format : MPEG-4Format profile : Base MediaCodec ID : isom (isom/iso2)File size : 393 MiBDuration : 1 h 35 minOverall bit rate mode : VariableOverall bit rate : 575 kb/sMovie name : Shadow of the Vampire 2000 BDRip XviD 480x rip by Frost O SGenre : HorrorContentType : Short FilmEncoded date : UTC 2017-01-31 12:48:55Tagged date : UTC 2017-01-31 12:49:15Writing application : MkvToMp4 version: 0.224 (x64)Cover : YesComment : rip by Frost O.SLongDescription : В 1921 году великий немецкий режиссер Ф. В. Мурнау снял один из самых знаменитых и самых страшных фильмов ужасов — «Носферату». У зрителей стыла в жилах кровь, когда они видели на экране сгорбленный силуэт коварного вампира, графа Орлока. Но вскоре их ужас усилился, когда пошли слухи о том, что главную роль в фильме сыграл настоящий вампир, утолявший свой вековой голод горячей кровью актеров и членов съемочной группы. Перед вами уникальная попытка восстановить ход событий, сопутствовавших мучительной работе над этим шедевром, по крупицам собравшим всё, что было известно о таинственных событиях, якобы произошедших на съемках в туманных горах Чехословакии, где до сих пор живы легенды о бессмертном демоне ночи — Носферату.

VideoID : 1Format : MPEG-4 VisualFormat profile : Advanced [email protected] settings, BVOP : YesFormat settings, QPel : NoFormat settings, GMC : No warppointsFormat settings, Matrix : CustomCodec ID : 20Duration : 1 h 35 minBit rate mode : VariableBit rate : 440 kb/sMaximum bit rate : 2 236 kb/sWidth : 480 pixelsHeight : 216 pixelsDisplay aspect ratio : 2.222Frame rate mode : ConstantFrame rate : 23.976 (24000/1001) FPSOriginal frame rate : 23.976 (23976/1000) FPSColor space : YUVChroma subsampling : 4:2:0Bit depth : 8 bitsScan type : ProgressiveCompression mode : LossyBits/(Pixel*Frame) : 0.177Stream size : 300 MiB (76%)Title : avi_GPAC0.5.2_DEV_rev248_g39d5978_masterWriting library : XviD 1.2.1 (UTC 2008-12-04)Language : EnglishTagged date : UTC 2017-01-31 12:49:02

AudioID : 2Format : AACFormat/Info : Advanced Audio CodecFormat profile : LCCodec ID : 40Duration : 1 h 35 minBit rate mode : VariableBit rate : 128 kb/sMaximum bit rate : 135 kb/sChannel(s) : 2 channelsChannel positions : Front: L RSampling rate : 48.0 kHzFrame rate : 46.875 FPS (1024 spf)Compression mode : LossyStream size : 87.3 MiB (22%)Title : Dub / DubLanguage : RussianDefault : YesAlternate group : 1Encoded date : UTC 2017-01-31 12:49:00Tagged date : UTC 2017-01-31 12:49:02
<div class="q-wrap">
<div class="q-head"><span><b>Цитата:</b></span></div>
<div class="q">Источник двухголосого перевода Pyramid лицензионная VHS из коллекции alenavova.</div>
</div>
<div class="clear" style="height: 8px;"></div>

Трекер:  [ 31-Янв-2017 15:30 ]

  

Скачать .torrent

Размер .torrent файла 16 KB


Размер: 393 MB
Хэш (hash) релиза: 19587a9ecac5f2e1ff5b036ec8a2c49fc9d8d3be

Торренты, похожие на [VIDEO] Тень вампира Shadow of the Vampire скачать торрент

Форум Название Автор Размер S L Добавлен
Видео (Фильмы/Клипы) ·· [VIDEO] Тень вампира / Shadow of the Vampire (Э. Елиас Мериге / E. Elias Merhige) [2000, ужасы, драма, BDRip] [MP4, 960x] Dub, DVO Pyramid, Original, Sub (rus, eng) Galfimbul 12155236011.13 GB 0 0 1485869606

16:33

31-Янв-17

Еще никто не оставлял запись к записи скачать торрент [VIDEO] Тень вампира Shadow of the Vampire . Будь первым!

!Обратная связь