1x07 Violet Evergarden | Neocrust | A CHORD HSIEH

Скачать через торрент [VIDEO] Поворот не туда 6 Wrong Turn 6: Last Resort бесплатно русская версия torrent активатор

Статистика раздачи
Размер:  2.06 GB   |    Зарегистрирован:  1 год 5 месяцев   |    .torrent скачан:  29 раз   |   
Раздают:  1  
   
загрузка...
 
Автор Сообщение

Galfimbul

avatar Galfimbul


Поворот не туда 6 / Wrong Turn 6: Last Resort
«The family needs new blood»
Премьера: 2014
Оригинальное название: Wrong Turn 6: Last Resort [Unrated]
Страна: США
Жанр: ужасы
Возраст: 18+

Режиссер: Валерий Милев / Valeri Milev

В ролях: Энтони Иллот, Крис Джарвис, Сэди Кац, Акилла Золл, Ролло Скиннер, Билли Эшворт, Гарри Белчер, Джо Гаминара, Роксанна Паллетт

Описание: В поисках внезапного и таинственного наследства, Дэнни и его друзья оказываются в Хобб Спрингс, на заброшенном курорте в горах Западной Вирджинии. Вскоре Дэнни узнает, что его родственники, которых он никогда не знал, вели довольно странный образ жизни, основывающийся на каннибализме. Дэнни придется выбирать между друзьями и родственниками.

Продолжительность: 01:30:30
Перевод: Профессиональный многоголосый
Оригинальная дорожка: есть

Автор рипа:

Качество видео: BDRip Исходник: BDRip (1080p) Формат: mp4
Видео кодек: MPEG-4 AVC Аудио кодек: AAC
Видео: 1280x720 (16:9) at 23.976 fps, AVC at 2 992 kbps avg, 0.135 bit/pixel
Аудио №1 Rus: 48.0 KHz, AAC, 2 ch, 128.0 Kbps
Аудио №2 Eng: 48.0 KHz, AAC, 2 ch, 128.0 Kbps
Субтитры: русские (полные), английские (полные)
Навигация по главам: есть
Размер: 2.06 GiB
avs [info]: 1280x720p 1:1 @ 24000/1001 fps (cfr)
x264 [info]: using SAR=1/1
x264 [info]: using cpu capabilities: MMX2 SSE2Fast SSSE3 Cache64
x264 [info]: profile High, level 4.1
x264 [info]: frame I:1243 Avg QP:15.30 size:122585
x264 [info]: frame P:31423 Avg QP:18.75 size: 31267
x264 [info]: frame B:97535 Avg QP:20.55 size: 9191
x264 [info]: consecutive B-frames: 2.4% 3.4% 8.2% 43.2% 13.1% 24.9% 4.8%
x264 [info]: mb I I16..4: 8.3% 73.6% 18.1%
x264 [info]: mb P I16..4: 2.4% 12.5% 1.2% P16..4: 42.8% 19.7% 11.2% 0.0% 0.0% skip:10.2%
---[Information] [30.01.2017 17:34:52] x264 [info]: mb B I16..4: 0.2% 1.0% 0.1% B16..8: 43.5% 6.9% 1.3% direct: 5.0% skip:42.0% L0:42.3% L1:49.6% BI: 8.1%
x264 [info]: 8x8 transform intra:76.3% inter:71.7%
x264 [info]: coded y,uvDC,uvAC intra: 73.1% 76.6% 40.3% inter: 19.0% 23.5% 1.2%
x264 [info]: i16 v,h,dc,p: 24% 17% 7% 52%
x264 [info]: i8 v,h,dc,ddl,ddr,vr,hd,vl,hu: 18% 14% 20% 6% 9% 9% 8% 9% 8%
x264 [info]: i4 v,h,dc,ddl,ddr,vr,hd,vl,hu: 21% 15% 12% 6% 11% 10% 9% 8% 6%
x264 [info]: i8c dc,h,v,p: 53% 18% 21% 8%
x264 [info]: Weighted P-Frames: Y:5.0% UV:2.4%
x264 [info]: ref P L0: 53.7% 11.6% 15.8% 5.5% 4.2% 3.0% 2.6% 1.6% 1.7% 0.3% 0.0%
x264 [info]: ref B L0: 83.2% 8.5% 3.5% 1.7% 1.3% 1.0% 0.6% 0.3%
x264 [info]: ref B L1: 95.3% 4.7%
x264 [info]: kb/s:2992.44
encoded 130201 frames, 1.94 fps, 2992.44 kb/s
GeneralFormat : MPEG-4Format profile : Base MediaCodec ID : isom (isom)File size : 2.06 GiBDuration : 1 h 30 minOverall bit rate mode : VariableOverall bit rate : 3 261 kb/sMovie name : Поворот не туда 6 | KinoGadgetPerformer : Валерий МилевDirector : Валерий МилевActor : Энтони Иллот / Крис Джарвис / Сэди Кац / Акилла Золл / Ролло Скиннер / Билли Эшворт / Гарри Белчер / Джо Гаминара / Роксанна ПаллеттScreenplay by : Фрэнк Х. ВудвордProducer : Джеффри Бич / Филлип Дж. Рот / Джон КаппиллаContentType : Short FilmRecorded date : 2014Encoded date : UTC 2017-01-30 15:06:59Tagged date : UTC 2017-01-30 15:13:12Cover : YesContentRating : mpaa|R|400|LongDescription : В поисках внезапного и таинственного наследства, Дэнни и его друзья оказываются в Хобб Спрингс, на заброшенном курорте в горах Западной Вирджинии. Вскоре Дэнни узнает, что его родственники, которых он никогда не знал, вели довольно странный образ жизни, основывающийся на каннибализме. Дэнни придется выбирать между друзьями и родственниками.HDVideo : Yes

VideoID : 1Format : AVCFormat/Info : Advanced Video CodecFormat profile : [email protected] settings, CABAC : YesFormat settings, ReFrames : 9 framesCodec ID : avc1Codec ID/Info : Advanced Video CodingDuration : 1 h 30 minBit rate : 2 992 kb/sMaximum bit rate : 15.5 Mb/sWidth : 1 280 pixelsHeight : 720 pixelsDisplay aspect ratio : 16:9Frame rate mode : ConstantFrame rate : 23.976 (24000/1001) FPSColor space : YUVChroma subsampling : 4:2:0Bit depth : 8 bitsScan type : ProgressiveBits/(Pixel*Frame) : 0.135Stream size : 1.89 GiB (92%)Writing library : x264 core 148 r2638 7599210Encoding settings : cabac=1 / ref=9 / deblock=1:-1:-1 / analyse=0x3:0x113 / me=umh / subme=7 / psy=1 / psy_rd=1.00:0.15 / mixed_ref=1 / me_range=32 / chroma_me=1 / trellis=2 / 8x8dct=1 / cqm=0 / deadzone=21,11 / fast_pskip=1 / chroma_qp_offset=-3 / threads=3 / lookahead_threads=1 / sliced_threads=0 / nr=0 / decimate=1 / interlaced=0 / bluray_compat=0 / constrained_intra=0 / bframes=6 / b_pyramid=2 / b_adapt=2 / b_bias=0 / direct=1 / weightb=1 / open_gop=0 / weightp=2 / keyint=240 / keyint_min=23 / scenecut=40 / intra_refresh=0 / rc_lookahead=40 / rc=crf / mbtree=1 / crf=19.0 / qcomp=0.60 / qpmin=0 / qpmax=69 / qpstep=4 / vbv_maxrate=62500 / vbv_bufsize=78125 / crf_max=0.0 / nal_hrd=none / filler=0 / ip_ratio=1.40 / aq=1:1.00Encoded date : UTC 2017-01-30 14:34:53Tagged date : UTC 2017-01-30 15:07:49

Audio #1ID : 2Format : AACFormat/Info : Advanced Audio CodecFormat profile : LCCodec ID : 40Duration : 1 h 30 minBit rate mode : VariableBit rate : 128 kb/sMaximum bit rate : 135 kb/sChannel(s) : 2 channelsChannel positions : Front: L RSampling rate : 48.0 kHzFrame rate : 46.875 FPS (1024 spf)Compression mode : LossyStream size : 82.9 MiB (4%)Title : P (license)Language : RussianEncoded date : UTC 2017-01-30 14:36:49Tagged date : UTC 2017-01-30 15:07:49

Audio #2ID : 3Format : AACFormat/Info : Advanced Audio CodecFormat profile : LCCodec ID : 40Duration : 1 h 30 minBit rate mode : VariableBit rate : 128 kb/sMaximum bit rate : 135 kb/sChannel(s) : 2 channelsChannel positions : Front: L RSampling rate : 48.0 kHzFrame rate : 46.875 FPS (1024 spf)Compression mode : LossyStream size : 82.9 MiB (4%)Language : EnglishEncoded date : UTC 2017-01-30 14:44:56Tagged date : UTC 2017-01-30 15:07:49

Text #1ID : 4Format : Timed TextCodec ID : tx3gDuration : 1 h 25 minBit rate mode : VariableBit rate : 81 b/sStream size : 51.1 KiB (0%)Title : FullLanguage : RussianForced : NoEncoded date : UTC 2017-01-30 15:07:49Tagged date : UTC 2017-01-30 15:07:49

Text #2ID : 5Format : Timed TextCodec ID : tx3gDuration : 1 h 30 minBit rate mode : VariableBit rate : 46 b/sStream size : 30.8 KiB (0%)Title : FullLanguage : EnglishForced : NoEncoded date : UTC 2017-01-30 15:07:49Tagged date : UTC 2017-01-30 15:07:49

Menu00:00:00.000 : Chapter 0100:04:51.666 : Chapter 0200:08:46.568 : Chapter 0300:12:18.196 : Chapter 0400:13:59.839 : Chapter 0500:15:56.164 : Chapter 0600:17:37.848 : Chapter 0700:20:10.334 : Chapter 0800:23:33.245 : Chapter 0900:27:01.161 : Chapter 1000:29:46.868 : Chapter 1100:34:01.289 : Chapter 1200:36:03.912 : Chapter 1300:41:20.103 : Chapter 1400:43:54.090 : Chapter 1500:47:40.232 : Chapter 1600:53:11.271 : Chapter 1700:56:45.027 : Chapter 1801:00:17.280 : Chapter 1901:05:47.277 : Chapter 2001:07:31.464 : Chapter 2101:09:44.347 : Chapter 2201:12:59.750 : Chapter 2301:15:09.088 : Chapter 2401:17:32.147 : Chapter 2501:20:38.459 : Chapter 2601:23:17.993 : Chapter 2701:26:34.189 : Chapter 28
<a href="tracker.php?rid=39840292" class="postLink"> </a>
<div class="clear" style="height: 8px;"></div>

Трекер:  [ 30-Янв-2017 17:30 ]

  

Скачать .torrent

Размер .torrent файла 10 KB


Размер: 2.06 GB
Хэш (hash) релиза: f1dba440d4d200e5129faad81162f65cf50a2e5e

Торренты, похожие на [VIDEO] Поворот не туда 6 Wrong Turn 6: Last Resort скачать торрент

Форум Название Автор Размер S L Добавлен
Видео (Фильмы/Клипы) ·· [VIDEO] Поворот не туда 6: Последний курорт / Wrong Turn 6: Last Resort (Валерий Милев / Valeri Milev) [2014, США, ужасы, HDRip][MP4, 480x] MVO Galfimbul 436028304416 MB 0 0 1434464150

17:15

16-Июн-15

Еще никто не оставлял запись к записи скачать торрент [VIDEO] Поворот не туда 6 Wrong Turn 6: Last Resort . Будь первым!

!Обратная связь