Cobra Kai (2018) | Valkoinen Toyota vei vaimoni | Grazie : 18

Скачать через торрент [VIDEO] Девушка в поезде The Girl on the Train бесплатно русская версия torrent активатор

Статистика раздачи
Размер:  2.41 GB   |    Зарегистрирован:  1 год 5 месяцев   |    .torrent скачан:  43 раза   |   
Раздают:  1  
   
загрузка...
 
Автор Сообщение

Galfimbul

avatar Galfimbul


Девушка в поезде / The Girl on the Train
«Чужие тайны могут быть опасны»
Год выпуска: 2016
Оригинальное название: The Girl on the Train
Страна: США
Жанр: триллер, драма, детектив
Возраст: 18+

Режиссер: Тейт Тейлор / Tate Taylor

В ролях: Эмили Блант, Хейли Беннетт, Ребекка Фергюсон (II), Джастин Теру, Люк Эванс, Эдгар Рамирес, Лора Припон, Эллисон Джэнни, Даррен Голдштейн, Лиза Кудроу, Клета Элейн Эллингтон, Лана Янг, Рэйчел Кристофер, Грегори Морли, Джон Норрис, Фрэнк Анелло, Сергей Ашуров, Сидни Байц, Марко Кака

Описание: Каждый день поезд проносит Рэйчел мимо очаровательного коттеджа, где живет идеальная на первый взгляд пара. Но однажды идиллия разрушится — прекрасная незнакомка бесследно исчезнет. Рэйчел окажется втянута в весьма запутанную историю, ведь только она видела из окна то, что было скрыто ото всех.

Продолжительность: 01:52:05
Перевод: Дублированный [Лицензия]
Оригинальная дорожка: есть

Автор рипа:

Качество видео: BDRip Исходник: Blu-Ray Remux (1080p) Формат: mp4
Видео кодек: MPEG-4 AVC Аудио кодек: AAC
Видео: 1280x692 (1.85:1) at 23.976 fps, AVC at 2 805 kbps avg, 0.132 bit/pixel
Аудио №1 Rus: 48.0 KHz, AAC, 2 ch, 128.0 Kbps
Аудио №2 Eng: 48.0 KHz, AAC, 2 ch, 128.0 Kbps
Субтитры: русские (форсированные, полные), английские (полные)
Навигация по главам: есть
Размер: 2.41 GiB
avs [info]: 1280x692p 1:1 @ 24000/1001 fps (cfr)
x264 [info]: using SAR=1/1
x264 [info]: using cpu capabilities: MMX2 SSE2Fast SSSE3 Cache64
x264 [info]: profile High, level 4.1
x264 [info]: frame I:1295 Avg QP:15.66 size:127561
x264 [info]: frame P:31883 Avg QP:18.41 size: 30067
x264 [info]: frame B:128061 Avg QP:20.33 size: 9636
x264 [info]: consecutive B-frames: 1.5% 1.6% 4.0% 12.9% 18.3% 51.8% 10.0%
x264 [info]: mb I I16..4: 10.3% 75.1% 14.6%
x264 [info]: mb P I16..4: 2.4% 9.0% 1.0% P16..4: 43.8% 20.8% 12.2% 0.0% 0.0% skip:10.8%
x264 [info]: mb B I16..4: 0.1% 0.7% 0.1% B16..8: 44.7% 6.4% 1.1% direct: 4.4% skip:42.6% L0:45.3% L1:49.4% BI: 5.3%
x264 [info]: 8x8 transform intra:74.5% inter:70.4%
x264 [info]: coded y,uvDC,uvAC intra: 76.0% 81.7% 54.2% inter: 21.0% 19.7% 1.4%
x264 [info]: i16 v,h,dc,p: 56% 8% 7% 28%
x264 [info]: i8 v,h,dc,ddl,ddr,vr,hd,vl,hu: 19% 11% 27% 5% 8% 9% 7% 8% 7%
x264 [info]: i4 v,h,dc,ddl,ddr,vr,hd,vl,hu: 37% 11% 12% 5% 9% 8% 7% 6% 5%
x264 [info]: i8c dc,h,v,p: 54% 16% 22% 9%
x264 [info]: Weighted P-Frames: Y:3.1% UV:1.3%
x264 [info]: ref P L0: 45.6% 9.8% 19.4% 6.8% 5.9% 4.1% 3.8% 2.0% 2.4% 0.2% 0.0%
x264 [info]: ref B L0: 71.8% 12.6% 6.2% 3.2% 2.8% 1.9% 1.1% 0.3%
x264 [info]: ref B L1: 92.0% 8.0%
x264 [info]: kb/s:2804.79
encoded 161239 frames, 2.04 fps, 2804.79 kb/s
GeneralFormat : MPEG-4Format profile : Base MediaCodec ID : isom (isom)File size : 2.41 GiBDuration : 1 h 52 minOverall bit rate mode : VariableOverall bit rate : 3 073 kb/sMovie name : Девушка в поезде | KinoGadgetPerformer : Тейт ТейлорDirector : Тейт ТейлорActor : Эмили Блант / Хейли Беннетт / Ребекка Фергюсон (II) / Джастин Теру / Люк Эванс / Эдгар Рамирес / Лора Припон / Эллисон Джэнни / Даррен Голдштейн / Лиза Кудроу / Клета Элейн Эллингтон / Лана ЯнгScreenplay by : Эрин Крессида Уилсон / Пола ХокинсProducer : Холли Барио / Селия Д. Костас / Дэб ДайерGenre : Drama, Mystery, ThrillerContentType : Short FilmRecorded date : 2016Encoded date : UTC 2017-01-29 18:06:17Tagged date : UTC 2017-01-29 18:10:53Cover : YesContentRating : mpaa|R|400|LongDescription : Каждый день поезд проносит Рэйчел мимо очаровательного коттеджа, где живет идеальная на первый взгляд пара. Но однажды идиллия разрушится — прекрасная незнакомка бесследно исчезнет. Рэйчел окажется втянута в весьма запутанную историю, ведь только она видела из окна то, что было скрыто ото всех.HDVideo : Yes

VideoID : 1Format : AVCFormat/Info : Advanced Video CodecFormat profile : [email protected] settings, CABAC : YesFormat settings, ReFrames : 9 framesCodec ID : avc1Codec ID/Info : Advanced Video CodingDuration : 1 h 52 minBit rate : 2 805 kb/sMaximum bit rate : 16.4 Mb/sWidth : 1 280 pixelsHeight : 692 pixelsDisplay aspect ratio : 1.85:1Frame rate mode : ConstantFrame rate : 23.976 (24000/1001) FPSColor space : YUVChroma subsampling : 4:2:0Bit depth : 8 bitsScan type : ProgressiveBits/(Pixel*Frame) : 0.132Stream size : 2.20 GiB (91%)Writing library : x264 core 148 r2638 7599210Encoding settings : cabac=1 / ref=9 / deblock=1:-1:-1 / analyse=0x3:0x113 / me=umh / subme=7 / psy=1 / psy_rd=1.00:0.15 / mixed_ref=1 / me_range=32 / chroma_me=1 / trellis=2 / 8x8dct=1 / cqm=0 / deadzone=21,11 / fast_pskip=1 / chroma_qp_offset=-3 / threads=3 / lookahead_threads=1 / sliced_threads=0 / nr=0 / decimate=1 / interlaced=0 / bluray_compat=0 / constrained_intra=0 / bframes=6 / b_pyramid=2 / b_adapt=2 / b_bias=0 / direct=1 / weightb=1 / open_gop=0 / weightp=2 / keyint=240 / keyint_min=23 / scenecut=40 / intra_refresh=0 / rc_lookahead=40 / rc=crf / mbtree=1 / crf=19.0 / qcomp=0.60 / qpmin=0 / qpmax=69 / qpstep=4 / vbv_maxrate=62500 / vbv_bufsize=78125 / crf_max=0.0 / nal_hrd=none / filler=0 / ip_ratio=1.40 / aq=1:1.00Encoded date : UTC 2017-01-29 15:49:14Tagged date : UTC 2017-01-29 18:06:57

Audio #1ID : 2Format : AACFormat/Info : Advanced Audio CodecFormat profile : LCCodec ID : 40Duration : 1 h 52 minBit rate mode : VariableBit rate : 128 kb/sMaximum bit rate : 135 kb/sChannel(s) : 2 channelsChannel positions : Front: L RSampling rate : 48.0 kHzFrame rate : 46.875 FPS (1024 spf)Compression mode : LossyStream size : 103 MiB (4%)Title : Dub [license]Language : RussianEncoded date : UTC 2017-01-29 15:57:09Tagged date : UTC 2017-01-29 18:06:57

Audio #2ID : 3Format : AACFormat/Info : Advanced Audio CodecFormat profile : LCCodec ID : 40Duration : 1 h 52 minBit rate mode : VariableBit rate : 128 kb/sMaximum bit rate : 135 kb/sChannel(s) : 2 channelsChannel positions : Front: L RSampling rate : 48.0 kHzFrame rate : 46.875 FPS (1024 spf)Compression mode : LossyStream size : 103 MiB (4%)Language : EnglishEncoded date : UTC 2017-01-29 16:10:55Tagged date : UTC 2017-01-29 18:06:57

Text #1ID : 4Format : Timed TextCodec ID : tx3gDuration : 1 h 52 minBit rate mode : VariableBit rate : 2 b/sStream size : 1.38 KiB (0%)Title : ForcedLanguage : RussianForced : NoEncoded date : UTC 2017-01-29 18:06:57Tagged date : UTC 2017-01-29 18:06:57

Text #2ID : 5Format : Timed TextCodec ID : tx3gDuration : 1 h 46 minBit rate mode : VariableBit rate : 82 b/sStream size : 63.4 KiB (0%)Title : FullLanguage : RussianForced : NoEncoded date : UTC 2017-01-29 18:06:57Tagged date : UTC 2017-01-29 18:06:57

Text #3ID : 6Format : Timed TextCodec ID : tx3gDuration : 1 h 45 minBit rate mode : VariableBit rate : 49 b/sStream size : 38.1 KiB (0%)Title : FullLanguage : EnglishForced : NoEncoded date : UTC 2017-01-29 18:06:57Tagged date : UTC 2017-01-29 18:06:57

Menu00:00:00.000 : 00:00:00.00000:04:55.128 : 00:04:55.12800:11:38.531 : 00:11:38.53100:17:30.007 : 00:17:30.00700:23:07.469 : 00:23:07.46900:29:35.816 : 00:29:35.81600:35:21.953 : 00:35:21.95300:42:35.678 : 00:42:35.67800:49:51.822 : 00:49:51.82200:55:14.186 : 00:55:14.18600:59:26.062 : 00:59:26.06201:05:48.027 : 01:05:48.02701:10:52.957 : 01:10:52.95701:13:14.724 : 01:13:14.72401:22:34.032 : 01:22:34.03201:31:42.956 : 01:31:42.95601:42:29.101 : 01:42:29.10101:51:31.018 : 01:51:31.01802:01:29.324 : 02:01:29.32402:07:08.621 : 02:07:08.621
<a href="tracker.php?rid=39840292" class="postLink"> </a>
<div class="clear" style="height: 8px;"></div>

Трекер:  [ 29-Янв-2017 20:30 ]

  

Скачать .torrent

Размер .torrent файла 12 KB


Размер: 2.41 GB
Хэш (hash) релиза: 77907d0a2a4b12723364b8229231a6aa3327173a

Еще никто не оставлял запись к записи скачать торрент [VIDEO] Девушка в поезде The Girl on the Train . Будь первым!

!Обратная связь