Michael Coleman | Beyond The Clouds 2017 1CD x264 DVDRip AAC 5.1 -DTOne 10th Aniv.mkv | Taken (2008)

Скачать через торрент [VIDEO] Забирая жизни Taking Lives бесплатно русская версия torrent активатор

Статистика раздачи
Размер:  1.64 GB   |    Зарегистрирован:  1 год 5 месяцев   |    .torrent скачан:  33 раза   |   
Раздают:  1  
   
загрузка...
 
Автор Сообщение

Galfimbul

avatar Galfimbul


Забирая жизни / Taking Lives
«Он убьет тебя, чтобы стать тобой»
Премьера: 2004
Оригинальное название: Taking Lives (Director's Cut)
Страна: США
Жанр: триллер, криминал, детектив
Возраст: 16+

Режиссер: Ди Джей Карузо / D.J. Caruso

В ролях: Анджелина Джоли, Итэн Хоук, Кифер Сазерленд, Джина Роулэндс, Оливье Мартинес, Чеки Карио, Жан-Юг Англад, Пол Дано, Джастин Чэтвин, Андре Лакосте

Описание: Ловкий и неуловимый убийца около двадцати лет ускользает от правосудия, живя жизнью своих жертв. Он использует их имена, кредитки, счета и даже платит за них налоги, создавая видимость жизни своих жертв. Детективы Монреаля, ведущие расследование сложного преступления зашли в тупик, будучи не в состоянии понять мотивы серийного убийцы. Дело передают агенту ФБР Иллиане Скотт, которая использует нетрадиционный подход в расследовании дел.

Продолжительность: 01:49:06
Перевод: Дублированный (Расширенные места - русские субтитры)
Оригинальная дорожка: есть

Автор рипа:

Качество видео: BDRip Исходник: Blu-Ray Remux (1080p) Формат: mp4
Видео кодек: MPEG-4 AVC Аудио кодек: AAC
Видео: 1280x530 (2.40:1) at 23.976 fps, AVC at 1 880 kbps avg, 0.116 bit/pixel
Аудио №1 Rus: 48.0 KHz, AAC, 2 ch, 128.0 Kbps
Аудио №2 Eng: 48.0 KHz, AAC, 2 ch, 128.0 Kbps
Субтитры: русские (на расширенные места, полные), английские (полные)
Навигация по главам: есть
Размер: 1.64 GiB
Режиссёрская версия не выходила в дубляже. На места без перевода присутствуют русские субтитры
на французскую речь вшитые английские субтитры
avs [info]: 1280x530p 1:1 @ 24000/1001 fps (cfr)
x264 [info]: using SAR=1/1
x264 [info]: using cpu capabilities: MMX2 SSE2Fast SSSE3 Cache64
x264 [info]: profile High, level 4.1
x264 [info]: frame I:1160 Avg QP:16.20 size: 65435
x264 [info]: frame P:31578 Avg QP:19.43 size: 19144
x264 [info]: frame B:124209 Avg QP:21.08 size: 6905
x264 [info]: consecutive B-frames: 2.1% 1.9% 4.6% 12.4% 18.3% 41.5% 12.2% 7.1%
x264 [info]: mb I I16..4: 6.9% 80.9% 12.2%
x264 [info]: mb P I16..4: 2.1% 11.7% 1.1% P16..4: 44.9% 17.5% 10.4% 0.0% 0.0% skip:12.3%
x264 [info]: mb B I16..4: 0.1% 1.1% 0.1% B16..8: 45.1% 6.8% 0.9% direct: 4.4% skip:41.5% L0:46.1% L1:48.9% BI: 5.0%
x264 [info]: 8x8 transform intra:79.7% inter:74.9%
x264 [info]: coded y,uvDC,uvAC intra: 75.2% 75.5% 37.7% inter: 18.2% 21.3% 0.7%
x264 [info]: i16 v,h,dc,p: 35% 14% 7% 44%
x264 [info]: i8 v,h,dc,ddl,ddr,vr,hd,vl,hu: 23% 14% 24% 5% 7% 7% 7% 7% 7%
x264 [info]: i4 v,h,dc,ddl,ddr,vr,hd,vl,hu: 32% 15% 12% 5% 9% 9% 7% 6% 5%
x264 [info]: i8c dc,h,v,p: 51% 22% 20% 7%
x264 [info]: Weighted P-Frames: Y:6.0% UV:2.4%
x264 [info]: ref P L0: 44.7% 9.4% 18.7% 7.1% 6.2% 4.5% 4.2% 2.4% 2.5% 0.4% 0.0%
x264 [info]: ref B L0: 67.6% 13.9% 7.5% 3.8% 2.9% 2.5% 1.3% 0.4%
x264 [info]: ref B L1: 90.3% 9.7%
x264 [info]: kb/s:1879.80
encoded 156947 frames, 2.58 fps, 1879.80 kb/s
GeneralFormat : MPEG-4Format profile : Base MediaCodec ID : isom (isom)File size : 1.64 GiBDuration : 1 h 49 minOverall bit rate mode : VariableOverall bit rate : 2 147 kb/sMovie name : Забирая жизни | KinoGadgetPerformer : Ди Джей КарузоDirector : Ди Джей КарузоActor : Анджелина Джоли / Итэн Хоук / Кифер Сазерленд / Джина Роулэндс / Оливье Мартинес / Чеки Карио / Жан-Юг Англад / Пол Дано / Джастин Чэтвин / Андре ЛакостеScreenplay by : Джон Бокенкамп / Майкл ПайProducer : Марк Кантон / Берни Голдманн / Брюс БерманGenre : Crime, Mystery, ThrillerContentType : Short FilmRecorded date : 2004Encoded date : UTC 2017-01-29 17:29:16Tagged date : UTC 2017-01-29 17:36:48Cover : YesContentRating : mpaa|R|400|LongDescription : Ловкий и неуловимый убийца около двадцати лет ускользает от правосудия, живя жизнью своих жертв. Он использует их имена, кредитки, счета и даже платит за них налоги, создавая видимость жизни своих жертв. Детективы Монреаля, ведущие расследование сложного преступления зашли в тупик, будучи не в состоянии понять мотивы серийного убийцы. Дело передают агенту ФБР Иллиане Скотт, которая использует нетрадиционный подход в расследовании дел.HDVideo : Yes

VideoID : 1Format : AVCFormat/Info : Advanced Video CodecFormat profile : [email protected] settings, CABAC : YesFormat settings, ReFrames : 9 framesCodec ID : avc1Codec ID/Info : Advanced Video CodingDuration : 1 h 49 minBit rate : 1 880 kb/sMaximum bit rate : 9 754 kb/sWidth : 1 280 pixelsHeight : 530 pixelsDisplay aspect ratio : 2.40:1Frame rate mode : ConstantFrame rate : 23.976 (24000/1001) FPSColor space : YUVChroma subsampling : 4:2:0Bit depth : 8 bitsScan type : ProgressiveBits/(Pixel*Frame) : 0.116Stream size : 1.43 GiB (88%)Writing library : x264 core 148 r2638 7599210Encoding settings : cabac=1 / ref=9 / deblock=1:-1:-1 / analyse=0x3:0x113 / me=umh / subme=7 / psy=1 / psy_rd=1.00:0.15 / mixed_ref=1 / me_range=32 / chroma_me=1 / trellis=2 / 8x8dct=1 / cqm=0 / deadzone=21,11 / fast_pskip=1 / chroma_qp_offset=-3 / threads=3 / lookahead_threads=1 / sliced_threads=0 / nr=0 / decimate=1 / interlaced=0 / bluray_compat=0 / constrained_intra=0 / bframes=7 / b_pyramid=2 / b_adapt=2 / b_bias=0 / direct=1 / weightb=1 / open_gop=0 / weightp=2 / keyint=240 / keyint_min=23 / scenecut=40 / intra_refresh=0 / rc_lookahead=40 / rc=crf / mbtree=1 / crf=19.5 / qcomp=0.60 / qpmin=0 / qpmax=69 / qpstep=4 / vbv_maxrate=62500 / vbv_bufsize=78125 / crf_max=0.0 / nal_hrd=none / filler=0 / ip_ratio=1.40 / aq=1:1.00Encoded date : UTC 2017-01-27 10:22:18Tagged date : UTC 2017-01-29 17:30:12

Audio #1ID : 2Format : AACFormat/Info : Advanced Audio CodecFormat profile : LCCodec ID : 40Duration : 1 h 49 minBit rate mode : VariableBit rate : 128 kb/sMaximum bit rate : 135 kb/sChannel(s) : 2 channelsChannel positions : Front: L RSampling rate : 48.0 kHzFrame rate : 46.875 FPS (1024 spf)Compression mode : LossyStream size : 99.9 MiB (6%)Title : DubLanguage : RussianEncoded date : UTC 2017-01-26 17:16:45Tagged date : UTC 2017-01-29 17:30:12

Audio #2ID : 3Format : AACFormat/Info : Advanced Audio CodecFormat profile : LCCodec ID : 40Duration : 1 h 49 minBit rate mode : VariableBit rate : 128 kb/sMaximum bit rate : 135 kb/sChannel(s) : 2 channelsChannel positions : Front: L RSampling rate : 48.0 kHzFrame rate : 46.875 FPS (1024 spf)Compression mode : LossyStream size : 99.9 MiB (6%)Language : EnglishEncoded date : UTC 2017-01-26 17:24:03Tagged date : UTC 2017-01-29 17:30:12

Text #1ID : 4Format : Timed TextCodec ID : tx3gDuration : 1 h 32 minBit rate mode : VariableBit rate : 5 b/sStream size : 3.50 KiB (0%)Title : ForcedLanguage : RussianForced : NoEncoded date : UTC 2017-01-29 17:30:11Tagged date : UTC 2017-01-29 17:30:12

Text #2ID : 5Format : Timed TextCodec ID : tx3gDuration : 1 h 44 minBit rate mode : VariableBit rate : 87 b/sStream size : 66.4 KiB (0%)Title : FullLanguage : RussianForced : NoEncoded date : UTC 2017-01-29 17:30:11Tagged date : UTC 2017-01-29 17:30:12

Text #3ID : 6Format : Timed TextCodec ID : tx3gDuration : 1 h 44 minBit rate mode : VariableBit rate : 47 b/sStream size : 36.1 KiB (0%)Title : FullLanguage : EnglishForced : NoEncoded date : UTC 2017-01-29 17:30:11Tagged date : UTC 2017-01-29 17:30:12

Menu00:00:00.000 : 00:00:00.00000:06:28.388 : 00:06:28.38800:09:07.380 : 00:09:07.38000:14:11.517 : 00:14:11.51700:17:11.197 : 00:17:11.19700:19:49.021 : 00:19:49.02100:24:33.639 : 00:24:33.63900:26:46.104 : 00:26:46.10400:28:47.893 : 00:28:47.89300:32:57.309 : 00:32:57.30900:38:37.815 : 00:38:37.81500:43:41.953 : 00:43:41.95300:48:28.405 : 00:48:28.40500:52:52.836 : 00:52:52.83600:56:36.560 : 00:56:36.56001:00:04.267 : 01:00:04.26701:03:00.777 : 01:03:00.77701:06:30.820 : 01:06:30.82001:09:59.362 : 01:09:59.36201:13:47.089 : 01:13:47.08901:20:02.297 : 01:20:02.29701:25:09.438 : 01:25:09.43801:27:44.593 : 01:27:44.59301:30:19.581 : 01:30:19.58101:33:13.922 : 01:33:13.92201:36:20.608 : 01:36:20.60801:38:56.430 : 01:38:56.43001:42:33.147 : 01:42:33.14701:44:49.283 : 01:44:49.283
<a href="tracker.php?rid=39840292" class="postLink"> </a>
<div class="clear" style="height: 8px;"></div>

Трекер:  [ 29-Янв-2017 20:00 ]

  

Скачать .torrent

Размер .torrent файла 17 KB


Размер: 1.64 GB
Хэш (hash) релиза: a5c22d507c2c349469cacc076a43f2937b06326e

Еще никто не оставлял запись к записи скачать торрент [VIDEO] Забирая жизни Taking Lives . Будь первым!

!Обратная связь