athermwa | Aristophane - Œuvres Complètes | Deborah Findlay

Скачать через торрент [VIDEO] Дэдпул Deadpool бесплатно русская версия torrent активатор

Статистика раздачи
Размер:  2.21 GB   |    Зарегистрирован:  1 год 5 месяцев   |    .torrent скачан:  42 раза   |   
Раздают:  1  
   
загрузка...
 
Автор Сообщение

Galfimbul

avatar Galfimbul


<span class="post-font-serif1">Дэдпул / Deadpool [Collector's Edition]</span>

<span class="post-font-serif1">Год выпуска: 2016
Страна: США / 20th Century Fox Film Corporation
Жанр: фантастика, боевик, мелодрама, комедия, приключения
Продолжительность: 01:48:16
Перевод №1: Русский Профессиональный (полное дублирование) Blu-ray CEE
Перевод №2: Украинский Профессиональный (полное дублирование) Blu-ray CEE
Перевод №3: Русский Профессиональный (многоголосый, закадровый) Кубик в Кубе | Ненормативная лексика |
Перевод №4: Русский Авторский (одноголосый, закадровый) Евгений Гаевский
Перевод №5: Русский Авторский (одноголосый, закадровый) zamez (ненормативный) | Ненормативная лексика |
Перевод №6: Русский Авторский (одноголосый, закадровый) zamez (цензурный)
Перевод №7: Русский Авторский (одноголосый, закадровый) Антон Карповский | Ненормативная лексика |
Перевод №8: Русский Авторский (одноголосый, закадровый) Юрий Сербин | Ненормативная лексика |
Перевод №9: Русский Авторский (одноголосый, закадровый) Юрий Живов
Оригинальная дорожка: Есть
Cубтитры: русские (forced, full), украинские (forced, full), английские (full, SDH)</span>
<span class="post-font-serif1">Режиссер: Тим Миллер / Tim Miller</span>
<span class="post-font-serif1">В ролях: Райан Рейнольдс, Морена Баккарин, Эд Скрейн, ТиДжей Миллер, Джина Карано, Брианна Хилдебранд, Стефан Капичич, Лесли Уггэмс, Джед Риис, Каран Сони, Майкл Беняер, Стайл Дэйн, Кайл Кэсси, Тэйлор Хиксон, Айзи, Наика Туссэн, Рендал Ридер, Айзек С. Синглтон мл., Джастин Шиппелт, Донна Ямамото и другие .</span>
<span class="post-font-serif1">Описание: Уэйд Уилсон — наёмник. Будучи побочным продуктом программы вооружённых сил под названием «Оружие X», Уилсон приобрёл невероятную силу, проворство и способность к исцелению. Но страшной ценой: его клеточная структура постоянно меняется, а здравомыслие сомнительно. Всё, чего Уилсон хочет, — это держаться на плаву в социальной выгребной яме. Но течение в ней слишком быстрое.</span>
<span class="post-font-serif1">Релиз группы </span>
<span class="post-font-serif1">Качество: BDRip / <a href="viewtopic.php?t=5334756" class="postLink">рип с BDRemux 1080p [Collector's Edition]</a>
Формат: MP4
Видео кодек: H.264
Аудио кодек: AAC
Видео: 960x402 AR:2.40 1610 kbps 23.976 fps
Аудио №1: [Russian] 2ch 48 kHz 128 kbps - Профессиональный (полное дублирование) Blu-ray CEE
Аудио №2: [Ukrainian] 2ch 48 kHz 128 kbps - Профессиональный (полное дублирование) Blu-ray CEE
Аудио №3: [Russian] 2ch 48 kHz 128 kbps - Профессиональный (многоголосый, закадровый) Кубик в Кубе | Ненормативная лексика |
Аудио №4: [Russian] 2ch 48 kHz 128 kbps - Авторский (одноголосый, закадровый) Евгений Гаевский
Аудио №5: [Russian] 2ch 48 kHz 128 kbps - Авторский (одноголосый, закадровый) zamez (ненормативный) | Ненормативная лексика |
Аудио №6: [Russian] 2ch 48 kHz 128 kbps - Авторский (одноголосый, закадровый) zamez (цензурный)
Аудио №7: [Russian] 2ch 48 kHz 128 kbps - Авторский (одноголосый, закадровый) Антон Карповский | Ненормативная лексика |
Аудио №8: [Russian] 2ch 48 kHz 128 kbps - Авторский (одноголосый, закадровый) Юрий Сербин | Ненормативная лексика |
Аудио №9: [Russian] 2ch 48 kHz 128 kbps - Авторский (одноголосый, закадровый) Юрий Живов
Аудио №10: [English] 2ch 48 kHz 128 kbps - Оригинал</span>
avs [info]: 960x402p 1:1 @ 2997/125 fps (cfr)
x264 [info]: using SAR=1/1
x264 [info]: using cpu capabilities: MMX2 SSE2Fast SSSE3 SSE4.2 AVX FMA3 AVX2 LZCNT BMI2
x264 [info]: profile High, level 4.1

x264 [info]: frame I:1617 Avg QP:17.09 size: 47232
x264 [info]: frame P:34733 Avg QP:18.82 size: 16973
x264 [info]: frame B:119163 Avg QP:21.45 size: 5366
x264 [info]: consecutive B-frames: 2.6% 2.7% 7.7% 26.8% 17.0% 32.3% 4.2% 4.7% 2.0%
x264 [info]: mb I I16..4: 8.7% 71.6% 19.8%
x264 [info]: mb P I16..4: 1.5% 15.0% 2.8% P16..4: 29.9% 33.1% 9.2% 0.0% 0.0% skip: 8.4%
x264 [info]: mb B I16..4: 0.3% 1.7% 0.4% B16..8: 35.0% 18.5% 2.4% direct: 3.9% skip:37.9% L0:43.9% L1:44.7% BI:11.4%
x264 [info]: 8x8 transform intra:75.4% inter:66.4%
x264 [info]: coded y,uvDC,uvAC intra: 82.6% 82.6% 57.4% inter: 19.0% 14.8% 3.2%
x264 [info]: i16 v,h,dc,p: 25% 18% 8% 49%
x264 [info]: i8 v,h,dc,ddl,ddr,vr,hd,vl,hu: 12% 9% 8% 9% 12% 12% 12% 11% 13%
x264 [info]: i4 v,h,dc,ddl,ddr,vr,hd,vl,hu: 31% 11% 6% 6% 10% 10% 9% 8% 9%
x264 [info]: i8c dc,h,v,p: 34% 29% 21% 16%
x264 [info]: Weighted P-Frames: Y:14.4% UV:10.2%
x264 [info]: ref P L0: 48.5% 10.9% 17.7% 6.5% 5.3% 3.7% 3.2% 1.9% 1.9% 0.3% 0.0%
x264 [info]: ref B L0: 76.3% 10.6% 5.3% 2.7% 2.3% 1.5% 0.9% 0.3%
x264 [info]: ref B L1: 94.7% 5.3%
x264 [info]: kb/s:1610.02

encoded 155513 frames, 14.26 fps, 1610.02 kb/s
GeneralComplete name : D:\Torrents\Deadpool.2016.BDRip.x264.960x.rip by Frost O.S.mp4Format : MPEG-4Format profile : Base MediaCodec ID : isom (isom/avc1/iso2)File size : 2.21 GiBDuration : 1 h 48 minOverall bit rate mode : VariableOverall bit rate : 2 927 kb/sMovie name : Deadpool 2016 BDRip x264 960x rip by Frost O SGenre : ActionContentType : Short FilmEncoded date : UTC 2017-01-29 12:00:13Tagged date : UTC 2017-01-29 12:09:31Writing application : MkvToMp4 version: 0.224 (x64)Cover : YesComment : rip by Frost O.S

VideoID : 1Format : AVCFormat/Info : Advanced Video CodecFormat profile : [email protected] settings, CABAC : YesFormat settings, ReFrames : 9 framesCodec ID : avc1Codec ID/Info : Advanced Video CodingDuration : 1 h 48 minBit rate : 1 610 kb/sMaximum bit rate : 13.1 Mb/sWidth : 960 pixelsHeight : 402 pixelsDisplay aspect ratio : 2.40:1Frame rate mode : ConstantFrame rate : 23.976 (24000/1001) FPSOriginal frame rate : 23.976 (23976/1000) FPSColor space : YUVChroma subsampling : 4:2:0Bit depth : 8 bitsScan type : ProgressiveBits/(Pixel*Frame) : 0.174Stream size : 1.22 GiB (55%)Writing library : x264 core 148 r2705 3f5ed56Encoding settings : cabac=1 / ref=9 / deblock=1:-2:-1 / analyse=0x3:0x113 / me=umh / subme=11 / psy=1 / psy_rd=0.90:0.10 / mixed_ref=1 / me_range=32 / chroma_me=1 / trellis=2 / 8x8dct=1 / cqm=0 / deadzone=21,11 / fast_pskip=1 / chroma_qp_offset=-3 / threads=6 / lookahead_threads=1 / sliced_threads=0 / nr=0 / decimate=1 / interlaced=0 / bluray_compat=0 / constrained_intra=0 / bframes=8 / b_pyramid=2 / b_adapt=2 / b_bias=0 / direct=1 / weightb=1 / open_gop=0 / weightp=2 / keyint=250 / keyint_min=23 / scenecut=40 / intra_refresh=0 / rc=crf / mbtree=0 / crf=19.4 / qcomp=0.76 / qpmin=0 / qpmax=69 / qpstep=4 / ip_ratio=1.40 / pb_ratio=1.30 / aq=1:1.00Language : EnglishEncoded date : UTC 2017-01-29 12:00:13Tagged date : UTC 2017-01-29 12:03:27Color range : LimitedColor primaries : BT.709Transfer characteristics : BT.709Matrix coefficients : BT.709

Audio #1ID : 2Format : AACFormat/Info : Advanced Audio CodecFormat profile : LCCodec ID : 40Duration : 1 h 48 minBit rate mode : VariableBit rate : 128 kb/sMaximum bit rate : 135 kb/sChannel(s) : 2 channelsChannel positions : Front: L RSampling rate : 48.0 kHzFrame rate : 46.875 FPS (1024 spf)Compression mode : LossyStream size : 99.0 MiB (4%)Title : Dub_ Blu_ray CEE / Dub_ Blu_ray CEELanguage : RussianDefault : YesAlternate group : 1Encoded date : UTC 2017-01-29 12:02:03Tagged date : UTC 2017-01-29 12:03:27

Audio #2ID : 3Format : AACFormat/Info : Advanced Audio CodecFormat profile : LCCodec ID : 40Duration : 1 h 48 minBit rate mode : VariableBit rate : 128 kb/sMaximum bit rate : 135 kb/sChannel(s) : 2 channelsChannel positions : Front: L RSampling rate : 48.0 kHzFrame rate : 46.875 FPS (1024 spf)Compression mode : LossyStream size : 99.0 MiB (4%)Title : Dub_ Blu_ray CEE / Dub_ Blu_ray CEELanguage : UkrainianDefault : NoAlternate group : 1Encoded date : UTC 2017-01-29 12:02:10Tagged date : UTC 2017-01-29 12:03:27

Audio #3ID : 4Format : AACFormat/Info : Advanced Audio CodecFormat profile : LCCodec ID : 40Duration : 1 h 48 minBit rate mode : VariableBit rate : 128 kb/sMaximum bit rate : 135 kb/sChannel(s) : 2 channelsChannel positions : Front: L RSampling rate : 48.0 kHzFrame rate : 46.875 FPS (1024 spf)Compression mode : LossyStream size : 99.0 MiB (4%)Title : MVO_ Kybik v Kybe / MVO_ Kybik v KybeLanguage : RussianDefault : NoAlternate group : 1Encoded date : UTC 2017-01-29 12:02:17Tagged date : UTC 2017-01-29 12:03:27

Audio #4ID : 5Format : AACFormat/Info : Advanced Audio CodecFormat profile : LCCodec ID : 40Duration : 1 h 48 minBit rate mode : VariableBit rate : 128 kb/sMaximum bit rate : 135 kb/sChannel(s) : 2 channelsChannel positions : Front: L RSampling rate : 48.0 kHzFrame rate : 46.875 FPS (1024 spf)Compression mode : LossyStream size : 99.0 MiB (4%)Title : VO_ Gaevskiy Evgeniy / VO_ Gaevskiy EvgeniyLanguage : RussianDefault : NoAlternate group : 1Encoded date : UTC 2017-01-29 12:02:25Tagged date : UTC 2017-01-29 12:03:27

Audio #5ID : 6Format : AACFormat/Info : Advanced Audio CodecFormat profile : LCCodec ID : 40Duration : 1 h 48 minBit rate mode : VariableBit rate : 128 kb/sMaximum bit rate : 132 kb/sChannel(s) : 2 channelsChannel positions : Front: L RSampling rate : 48.0 kHzFrame rate : 46.875 FPS (1024 spf)Compression mode : LossyStream size : 99.1 MiB (4%)Title : VO_ zamez _nenormativnuy_ / VO_ zamez _nenormativnuy_Language : RussianDefault : NoAlternate group : 1Encoded date : UTC 2017-01-29 12:02:33Tagged date : UTC 2017-01-29 12:03:27

Audio #6ID : 7Format : AACFormat/Info : Advanced Audio CodecFormat profile : LCCodec ID : 40Duration : 1 h 48 minBit rate mode : VariableBit rate : 128 kb/sMaximum bit rate : 131 kb/sChannel(s) : 2 channelsChannel positions : Front: L RSampling rate : 48.0 kHzFrame rate : 46.875 FPS (1024 spf)Compression mode : LossyStream size : 99.1 MiB (4%)Title : VO_ zamez _cenzurnuy_ / VO_ zamez _cenzurnuy_Language : RussianDefault : NoAlternate group : 1Encoded date : UTC 2017-01-29 12:02:44Tagged date : UTC 2017-01-29 12:03:27

Audio #7ID : 8Format : AACFormat/Info : Advanced Audio CodecFormat profile : LCCodec ID : 40Duration : 1 h 48 minBit rate mode : VariableBit rate : 128 kb/sMaximum bit rate : 135 kb/sChannel(s) : 2 channelsChannel positions : Front: L RSampling rate : 48.0 kHzFrame rate : 46.875 FPS (1024 spf)Compression mode : LossyStream size : 99.0 MiB (4%)Title : VO_ Karpovskiy Anton / VO_ Karpovskiy AntonLanguage : RussianDefault : NoAlternate group : 1Encoded date : UTC 2017-01-29 12:02:51Tagged date : UTC 2017-01-29 12:03:27

Audio #8ID : 9Format : AACFormat/Info : Advanced Audio CodecFormat profile : LCCodec ID : 40Duration : 1 h 48 minBit rate mode : VariableBit rate : 128 kb/sMaximum bit rate : 135 kb/sChannel(s) : 2 channelsChannel positions : Front: L RSampling rate : 48.0 kHzFrame rate : 46.875 FPS (1024 spf)Compression mode : LossyStream size : 99.0 MiB (4%)Title : VO_ Serbin Uriy / VO_ Serbin UriyLanguage : RussianDefault : NoAlternate group : 1Encoded date : UTC 2017-01-29 12:02:59Tagged date : UTC 2017-01-29 12:03:27

Audio #9ID : 10Format : AACFormat/Info : Advanced Audio CodecFormat profile : LCCodec ID : 40Duration : 1 h 48 minBit rate mode : VariableBit rate : 128 kb/sMaximum bit rate : 135 kb/sChannel(s) : 2 channelsChannel positions : Front: L RSampling rate : 48.0 kHzFrame rate : 46.875 FPS (1024 spf)Compression mode : LossyStream size : 99.0 MiB (4%)Title : VO_ Zhuvov Uriy / VO_ Zhuvov UriyLanguage : RussianDefault : NoAlternate group : 1Encoded date : UTC 2017-01-29 12:03:08Tagged date : UTC 2017-01-29 12:03:27

Audio #10ID : 11Format : AACFormat/Info : Advanced Audio CodecFormat profile : LCCodec ID : 40Duration : 1 h 48 minBit rate mode : VariableBit rate : 128 kb/sMaximum bit rate : 135 kb/sChannel(s) : 2 channelsChannel positions : Front: L RSampling rate : 48.0 kHzFrame rate : 46.875 FPS (1024 spf)Compression mode : LossyStream size : 99.0 MiB (4%)Title : Original / OriginalLanguage : EnglishDefault : NoAlternate group : 1Encoded date : UTC 2017-01-29 12:03:16Tagged date : UTC 2017-01-29 12:03:27

Text #1ID : 12Format : Timed TextMuxing mode : sbtlCodec ID : tx3gDuration : 1 h 48 minBit rate mode : VariableBit rate : 0 b/sStream size : 147 Bytes (0%)Title : forced / forcedLanguage : RussianDefault : YesForced : NoAlternate group : 2Encoded date : UTC 2017-01-29 12:03:26Tagged date : UTC 2017-01-29 12:03:27

Text #2ID : 13Format : Timed TextMuxing mode : sbtlCodec ID : tx3gDuration : 1 h 48 minBit rate mode : VariableBit rate : 96 b/sStream size : 76.2 KiB (0%)Title : full / fullLanguage : RussianDefault : NoForced : NoAlternate group : 2Encoded date : UTC 2017-01-29 12:03:26Tagged date : UTC 2017-01-29 12:03:27

Text #3ID : 14Format : Timed TextMuxing mode : sbtlCodec ID : tx3gDuration : 1 h 48 minBit rate mode : VariableBit rate : 1 b/sStream size : 640 Bytes (0%)Title : forced / forcedLanguage : UkrainianDefault : NoForced : NoAlternate group : 2Encoded date : UTC 2017-01-29 12:03:26Tagged date : UTC 2017-01-29 12:03:27

Text #4ID : 15Format : Timed TextMuxing mode : sbtlCodec ID : tx3gDuration : 1 h 48 minBit rate mode : VariableBit rate : 99 b/sStream size : 78.2 KiB (0%)Title : full / fullLanguage : UkrainianDefault : NoForced : NoAlternate group : 2Encoded date : UTC 2017-01-29 12:03:27Tagged date : UTC 2017-01-29 12:03:27

Text #5ID : 16Format : Timed TextMuxing mode : sbtlCodec ID : tx3gDuration : 1 h 48 minBit rate mode : VariableBit rate : 61 b/sStream size : 48.1 KiB (0%)Language : EnglishDefault : NoForced : NoAlternate group : 2Encoded date : UTC 2017-01-29 12:03:27Tagged date : UTC 2017-01-29 12:03:27

Text #6ID : 17Format : Timed TextMuxing mode : sbtlCodec ID : tx3gDuration : 1 h 48 minBit rate mode : VariableBit rate : 74 b/sStream size : 58.6 KiB (0%)Title : SDH / SDHLanguage : EnglishDefault : NoForced : NoAlternate group : 2Encoded date : UTC 2017-01-29 12:03:27Tagged date : UTC 2017-01-29 12:03:27
<div class="clear" style="height: 8px;"></div>

Трекер:  [ 29-Янв-2017 17:30 ]

  

Скачать .torrent

Размер .torrent файла 11 KB


Размер: 2.21 GB
Хэш (hash) релиза: 9bb7fd420dfc626237828461cdc074c5576d040e

Торренты, похожие на [VIDEO] Дэдпул Deadpool скачать торрент

Форум Название Автор Размер S L Добавлен
Видео (Фильмы/Клипы) ·· [VIDEO] Дэдпул / Deadpool (Тим Миллер / Tim Miller) [2016, фантастика, боевик, мелодрама, комедия, приключения, HDRip] [MP4, 480x] Dub Galfimbul 514802219491 MB 0 0 1485704516

18:41

29-Янв-17

Еще никто не оставлял запись к записи скачать торрент [VIDEO] Дэдпул Deadpool . Будь первым!

!Обратная связь