December 2016 (5498) | Los Siete Pecados Capitales Capitulo 27 Español Latino | Arrow S04E20 VOSTFR HDTV

Скачать через торрент [VIDEO] Дэдпул Deadpool бесплатно русская версия torrent активатор

Статистика раздачи
Размер:  491 MB   |    Зарегистрирован:  1 год 5 месяцев   |    .torrent скачан:  32 раза   |   
Раздают:  1  
   
загрузка...
 
Автор Сообщение

Galfimbul

avatar Galfimbul


<span class="post-font-serif1">Дэдпул / Deadpool</span>

<span class="post-font-serif1">Год выпуска: 2016
Страна: США / 20th Century Fox Film Corporation
Жанр: фантастика, боевик, мелодрама, комедия, приключения
Продолжительность: 01:48:06
Перевод: Русский Профессиональный (полное дублирование) Blu-ray CEE
Cубтитры: нет</span>
<span class="post-font-serif1">Режиссер: Тим Миллер / Tim Miller</span>
<span class="post-font-serif1">В ролях: Райан Рейнольдс, Морена Баккарин, Эд Скрейн, ТиДжей Миллер, Джина Карано, Брианна Хилдебранд, Стефан Капичич, Лесли Уггэмс, Джед Риис, Каран Сони, Майкл Беняер, Стайл Дэйн, Кайл Кэсси, Тэйлор Хиксон, Айзи, Наика Туссэн, Рендал Ридер, Айзек С. Синглтон мл., Джастин Шиппелт, Донна Ямамото и другие .</span>
<span class="post-font-serif1">Описание: Уэйд Уилсон — наёмник. Будучи побочным продуктом программы вооружённых сил под названием «Оружие X», Уилсон приобрёл невероятную силу, проворство и способность к исцелению. Но страшной ценой: его клеточная структура постоянно меняется, а здравомыслие сомнительно. Всё, чего Уилсон хочет, — это держаться на плаву в социальной выгребной яме. Но течение в ней слишком быстрое.</span>
<span class="post-font-serif1">Релиз группы </span>
<span class="post-font-serif1">Качество: HDRip / <a href="viewtopic.php?t=5215955" class="postLink">рип с BDRip 1080p</a>
Формат: MP4
Видео кодек: XviD
Аудио кодек: AAC
Видео: 480x200 AR:2.40 499 kbps 23.976 fps
Аудио: [Russian] 2ch 48 kHz 128 kbps - Профессиональный (полное дублирование) Blu-ray CEE</span>
GeneralComplete name : D:\Torrents\Deadpool.2016.HDRip.XviD.480x.rip by Frost O.S.mp4Format : MPEG-4Format profile : Base MediaCodec ID : isom (isom/iso2)File size : 491 MiBDuration : 1 h 48 minOverall bit rate mode : VariableOverall bit rate : 635 kb/sMovie name : Deadpool 2016 HDRip XviD 480x rip by Frost O SGenre : ActionContentType : Short FilmEncoded date : UTC 2017-01-29 12:14:01Tagged date : UTC 2017-01-29 12:14:55Writing application : MkvToMp4 version: 0.224 (x64)Cover : YesComment : rip by Frost O.S

VideoID : 1Format : MPEG-4 VisualFormat profile : Advanced [email protected] settings, BVOP : YesFormat settings, QPel : NoFormat settings, GMC : No warppointsFormat settings, Matrix : CustomCodec ID : 20Duration : 1 h 48 minBit rate mode : VariableBit rate : 499 kb/sMaximum bit rate : 3 797 kb/sWidth : 480 pixelsHeight : 200 pixelsDisplay aspect ratio : 2.40:1Frame rate mode : ConstantFrame rate : 23.976 (24000/1001) FPSOriginal frame rate : 23.976 (23976/1000) FPSColor space : YUVChroma subsampling : 4:2:0Bit depth : 8 bitsScan type : ProgressiveCompression mode : LossyBits/(Pixel*Frame) : 0.217Stream size : 386 MiB (79%)Title : avi_GPAC0.5.2_DEV_rev248_g39d5978_masterWriting library : XviD 1.2.1 (UTC 2008-12-04)Language : EnglishTagged date : UTC 2017-01-29 12:14:23

AudioID : 2Format : AACFormat/Info : Advanced Audio CodecFormat profile : LCCodec ID : 40Duration : 1 h 48 minBit rate mode : VariableBit rate : 128 kb/sMaximum bit rate : 135 kb/sChannel(s) : 2 channelsChannel positions : Front: L RSampling rate : 48.0 kHzFrame rate : 46.875 FPS (1024 spf)Compression mode : LossyStream size : 99.0 MiB (20%)Title : Dub_ Blu_ray CEE / Dub_ Blu_ray CEELanguage : RussianDefault : YesAlternate group : 1Encoded date : UTC 2017-01-29 12:14:10Tagged date : UTC 2017-01-29 12:14:23
<div class="clear" style="height: 8px;"></div>

Трекер:  [ 29-Янв-2017 17:30 ]

  

Скачать .torrent

Размер .torrent файла 19 KB


Размер: 491 MB
Хэш (hash) релиза: a2a7268d1874f8046a56372045e35b9be8116839

Торренты, похожие на [VIDEO] Дэдпул Deadpool скачать торрент

Форум Название Автор Размер S L Добавлен
Видео (Фильмы/Клипы) ·· [VIDEO] Дэдпул / Deadpool (Тим Миллер / Tim Miller) [2016, фантастика, боевик, мелодрама, комедия, приключения, BDRip] [MP4, 960x] [Collector's Edition] Galfimbul 23763426072.21 GB 0 0 1485704523

18:42

29-Янв-17

Еще никто не оставлял запись к записи скачать торрент [VIDEO] Дэдпул Deadpool . Будь первым!

!Обратная связь