Lone Star (2010) | http://inhomeland.tk/32637/arcade-fire-funeral-2004 | Elementary S06E16

Скачать через торрент [VIDEO] Дракула Dracula Untold бесплатно русская версия torrent активатор

Статистика раздачи
Размер:  1.39 GB   |    Зарегистрирован:  1 год 6 месяцев   |    .torrent скачан:  19 раз   |   
Раздают:  1  
   
загрузка...
 
Автор Сообщение

Galfimbul

avatar Galfimbul


<span class="post-font-serif1">Дракула / Dracula Untold</span>

<span class="post-font-serif1">Год выпуска: 2014
Страна: США, Япония
Жанр: ужасы, фэнтези, боевик, драма, военный
Продолжительность: 01:32:08
Перевод №1: Русский Профессиональный (полное дублирование) Blu-ray CEE, Пифагор
Перевод №2: Русский Одноголосый (закадровый) Есарев Дмитрий
Перевод №3: Русский Авторский (одноголосый, закадровый) Сергей Визгунов
Перевод №4: Русский Авторский (одноголосый, закадровый) Андрей Дольский
Оригинальная дорожка: Есть
Cубтитры: русские (forced, full), украинские (forced Blu-ray CEE, full Blu-ray CEE), английские (forced, full, SDH)</span>
<span class="post-font-serif1">Режиссер: Гари Шор / Gary Shore</span>
<span class="post-font-serif1">В ролях: Люк Эванс, Чарльз Дэнс, Сара Гадон, Доминик Купер, Арт Паркинсон, Дайармейд Мерта, Пол Кэй, Уильям Хьюстон, Ной Хантли, Ронан Вайберт и другие .</span>
<span class="post-font-serif1">Описание: Влад Дракула был величайшим правителем, доблестным воином и страстным мужчиной. Но судьба свела его с врагом, коварство которого не знало границ. И тогда Дракула заключил сделку – нечеловеческая сила в обмен на самую малость – бессмертную душу…</span>
<span class="post-font-serif1">Релиз группы </span>
<span class="post-font-serif1">Качество: BDRip / <a href="viewtopic.php?t=5156749" class="postLink">рип с BDRemux 1080p</a>
Формат: MP4
Видео кодек: H.264
Аудио кодек: AAC
Видео: 960x400 AR:2.40 1503 kbps 23.976 fps
Аудио №1: [Russian] 2ch 48 kHz 128 kbps - Профессиональный (полное дублирование) Blu-ray CEE, Пифагор
Аудио №2: [Russian] 2ch 48 kHz 128 kbps - Одноголосый (закадровый) Есарев Дмитрий
Аудио №3: [Russian] 2ch 48 kHz 128 kbps - Авторский (одноголосый, закадровый) Сергей Визгунов
Аудио №4: [Russian] 2ch 48 kHz 128 kbps - Авторский (одноголосый, закадровый) Андрей Дольский
Аудио №5: [English] 2ch 48 kHz 128 kbps - Оригинал</span>
avs [info]: 960x400p 1:1 @ 2997/125 fps (cfr)
x264 [info]: using SAR=1/1
x264 [info]: using cpu capabilities: MMX2 SSE2Fast SSSE3 SSE4.2 AVX FMA3 AVX2 LZCNT BMI2
x264 [info]: profile High, level 4.1

x264 [info]: frame I:1186 Avg QP:16.07 size: 46805
x264 [info]: frame P:28380 Avg QP:17.91 size: 15995
x264 [info]: frame B:102982 Avg QP:20.59 size: 5137
x264 [info]: consecutive B-frames: 2.8% 2.4% 7.0% 13.5% 17.8% 45.2% 7.5% 3.9%
x264 [info]: mb I I16..4: 8.5% 71.9% 19.6%
x264 [info]: mb P I16..4: 0.9% 7.9% 1.1% P16..4: 32.1% 37.2% 11.1% 0.0% 0.0% skip: 9.7%
x264 [info]: mb B I16..4: 0.0% 0.8% 0.1% B16..8: 35.7% 17.5% 2.7% direct: 3.6% skip:39.5% L0:44.4% L1:46.4% BI: 9.2%
x264 [info]: 8x8 transform intra:78.7% inter:62.0%
x264 [info]: coded y,uvDC,uvAC intra: 84.6% 83.6% 69.6% inter: 19.2% 15.7% 4.1%
x264 [info]: i16 v,h,dc,p: 26% 15% 10% 49%
x264 [info]: i8 v,h,dc,ddl,ddr,vr,hd,vl,hu: 6% 6% 6% 11% 16% 14% 14% 13% 14%
x264 [info]: i4 v,h,dc,ddl,ddr,vr,hd,vl,hu: 7% 6% 6% 11% 16% 14% 14% 12% 14%
x264 [info]: i8c dc,h,v,p: 47% 20% 15% 18%
x264 [info]: Weighted P-Frames: Y:23.9% UV:17.0%
x264 [info]: ref P L0: 47.9% 8.4% 16.9% 7.8% 6.1% 4.6% 3.5% 2.2% 2.0% 0.6% 0.1%
x264 [info]: ref B L0: 75.9% 10.7% 5.4% 2.6% 2.6% 1.7% 0.9% 0.3%
x264 [info]: ref B L1: 94.0% 6.0%
x264 [info]: kb/s:1502.78

encoded 132548 frames, 14.19 fps, 1502.79 kb/s
GeneralComplete name : D:\Torrents\Dracula Untold.2014.BDRip.x264.960x.rip by Frost O.S.mp4Format : MPEG-4Format profile : Base MediaCodec ID : isom (isom/avc1/iso2)File size : 1.39 GiBDuration : 1 h 32 minOverall bit rate mode : VariableOverall bit rate : 2 165 kb/sMovie name : Dracula Untold 2014 BDRip x264 960x rip by Frost O SGenre : ActionContentType : Short FilmEncoded date : UTC 2017-01-29 10:23:21Tagged date : UTC 2017-01-29 10:29:40Writing application : MkvToMp4 version: 0.224 (x64)Cover : YesComment : rip by Frost O.S

VideoID : 1Format : AVCFormat/Info : Advanced Video CodecFormat profile : [email protected] settings, CABAC : YesFormat settings, ReFrames : 9 framesCodec ID : avc1Codec ID/Info : Advanced Video CodingDuration : 1 h 32 minBit rate : 1 503 kb/sMaximum bit rate : 7 650 kb/sWidth : 960 pixelsHeight : 400 pixelsDisplay aspect ratio : 2.40:1Frame rate mode : ConstantFrame rate : 23.976 (24000/1001) FPSOriginal frame rate : 23.976 (23976/1000) FPSColor space : YUVChroma subsampling : 4:2:0Bit depth : 8 bitsScan type : ProgressiveBits/(Pixel*Frame) : 0.163Stream size : 990 MiB (69%)Writing library : x264 core 148 r2705 3f5ed56Encoding settings : cabac=1 / ref=9 / deblock=1:-1:-1 / analyse=0x3:0x113 / me=umh / subme=11 / psy=1 / psy_rd=1.05:0.00 / mixed_ref=1 / me_range=32 / chroma_me=1 / trellis=2 / 8x8dct=1 / cqm=0 / deadzone=21,11 / fast_pskip=1 / chroma_qp_offset=-2 / threads=6 / lookahead_threads=1 / sliced_threads=0 / nr=0 / decimate=1 / interlaced=0 / bluray_compat=0 / constrained_intra=0 / bframes=7 / b_pyramid=2 / b_adapt=2 / b_bias=0 / direct=1 / weightb=1 / open_gop=0 / weightp=2 / keyint=250 / keyint_min=23 / scenecut=40 / intra_refresh=0 / rc=crf / mbtree=0 / crf=19.3 / qcomp=0.80 / qpmin=0 / qpmax=69 / qpstep=4 / ip_ratio=1.40 / pb_ratio=1.30 / aq=2:1.10Language : EnglishEncoded date : UTC 2017-01-29 10:23:21Tagged date : UTC 2017-01-29 10:25:33Color range : LimitedColor primaries : BT.709Transfer characteristics : BT.709Matrix coefficients : BT.709

Audio #1ID : 2Format : AACFormat/Info : Advanced Audio CodecFormat profile : LCCodec ID : 40Duration : 1 h 32 minBit rate mode : VariableBit rate : 128 kb/sMaximum bit rate : 135 kb/sChannel(s) : 2 channelsChannel positions : Front: L RSampling rate : 48.0 kHzFrame rate : 46.875 FPS (1024 spf)Compression mode : LossyStream size : 84.4 MiB (6%)Title : Dub_ Blu_ray CEE_[Pifagor] / Dub_ Blu_ray CEE_[Pifagor]Language : RussianDefault : YesAlternate group : 1Encoded date : UTC 2017-01-29 10:24:45Tagged date : UTC 2017-01-29 10:25:33

Audio #2ID : 3Format : AACFormat/Info : Advanced Audio CodecFormat profile : LCCodec ID : 40Duration : 1 h 32 minBit rate mode : VariableBit rate : 128 kb/sMaximum bit rate : 135 kb/sChannel(s) : 2 channelsChannel positions : Front: L RSampling rate : 48.0 kHzFrame rate : 46.875 FPS (1024 spf)Compression mode : LossyStream size : 84.4 MiB (6%)Title : VO Esarev Dmitriy / VO Esarev DmitriyLanguage : RussianDefault : NoAlternate group : 1Encoded date : UTC 2017-01-29 10:24:56Tagged date : UTC 2017-01-29 10:25:33

Audio #3ID : 4Format : AACFormat/Info : Advanced Audio CodecFormat profile : LCCodec ID : 40Duration : 1 h 32 minBit rate mode : VariableBit rate : 128 kb/sMaximum bit rate : 135 kb/sChannel(s) : 2 channelsChannel positions : Front: L RSampling rate : 48.0 kHzFrame rate : 46.875 FPS (1024 spf)Compression mode : LossyStream size : 84.4 MiB (6%)Title : VO Vizgunov Sergey / VO Vizgunov SergeyLanguage : RussianDefault : NoAlternate group : 1Encoded date : UTC 2017-01-29 10:25:06Tagged date : UTC 2017-01-29 10:25:33

Audio #4ID : 5Format : AACFormat/Info : Advanced Audio CodecFormat profile : LCCodec ID : 40Duration : 1 h 32 minBit rate mode : VariableBit rate : 128 kb/sMaximum bit rate : 135 kb/sChannel(s) : 2 channelsChannel positions : Front: L RSampling rate : 48.0 kHzFrame rate : 46.875 FPS (1024 spf)Compression mode : LossyStream size : 84.4 MiB (6%)Title : VO Dolskiy Andrey / VO Dolskiy AndreyLanguage : RussianDefault : NoAlternate group : 1Encoded date : UTC 2017-01-29 10:25:13Tagged date : UTC 2017-01-29 10:25:33

Audio #5ID : 6Format : AACFormat/Info : Advanced Audio CodecFormat profile : LCCodec ID : 40Duration : 1 h 32 minBit rate mode : VariableBit rate : 128 kb/sMaximum bit rate : 135 kb/sChannel(s) : 2 channelsChannel positions : Front: L RSampling rate : 48.0 kHzFrame rate : 46.875 FPS (1024 spf)Compression mode : LossyStream size : 84.4 MiB (6%)Title : Original / OriginalLanguage : EnglishDefault : NoAlternate group : 1Encoded date : UTC 2017-01-29 10:25:22Tagged date : UTC 2017-01-29 10:25:33

Text #1ID : 7Format : Timed TextMuxing mode : sbtlCodec ID : tx3gDuration : 1 h 23 minBit rate mode : VariableBit rate : 6 b/sStream size : 3.89 KiB (0%)Title : forced_Blu_ray CEE / forced_Blu_ray CEELanguage : RussianDefault : YesForced : NoAlternate group : 2Encoded date : UTC 2017-01-29 10:25:33Tagged date : UTC 2017-01-29 10:25:33

Text #2ID : 8Format : Timed TextMuxing mode : sbtlCodec ID : tx3gDuration : 1 h 24 minBit rate mode : VariableBit rate : 54 b/sStream size : 33.9 KiB (0%)Title : full_Blu_ray CEE / full_Blu_ray CEELanguage : RussianDefault : NoForced : NoAlternate group : 2Encoded date : UTC 2017-01-29 10:25:33Tagged date : UTC 2017-01-29 10:25:33

Text #3ID : 9Format : Timed TextMuxing mode : sbtlCodec ID : tx3gDuration : 19 min 45 sBit rate mode : VariableBit rate : 2 b/sStream size : 370 Bytes (0%)Title : forced / forcedLanguage : EnglishDefault : NoForced : NoAlternate group : 2Encoded date : UTC 2017-01-29 10:25:33Tagged date : UTC 2017-01-29 10:25:33

Text #4ID : 10Format : Timed TextMuxing mode : sbtlCodec ID : tx3gDuration : 1 h 24 minBit rate mode : VariableBit rate : 37 b/sStream size : 23.2 KiB (0%)Title : full / fullLanguage : EnglishDefault : NoForced : NoAlternate group : 2Encoded date : UTC 2017-01-29 10:25:33Tagged date : UTC 2017-01-29 10:25:33

Text #5ID : 11Format : Timed TextMuxing mode : sbtlCodec ID : tx3gDuration : 1 h 24 minBit rate mode : VariableBit rate : 44 b/sStream size : 27.3 KiB (0%)Title : SDH_full / SDH_fullLanguage : EnglishDefault : NoForced : NoAlternate group : 2Encoded date : UTC 2017-01-29 10:25:33Tagged date : UTC 2017-01-29 10:25:33
<div class="clear" style="height: 8px;"></div>

Трекер:  [ 29-Янв-2017 17:30 ]

  

Скачать .torrent

Размер .torrent файла 14 KB


Размер: 1.39 GB
Хэш (hash) релиза: 76d99eef4f50530834baff7e8f747f6a0cc85766

Еще никто не оставлял запись к записи скачать торрент [VIDEO] Дракула Dracula Untold . Будь первым!

!Обратная связь