999 Nụ Hôn Bá Đạo Của Nam Thần – Chap 248 | Elephant Princess | Unpretty Rapstar Season 3

Скачать через торрент [VIDEO] Дракула Dracula Untold бесплатно русская версия torrent активатор

Статистика раздачи
Размер:  419 MB   |    Зарегистрирован:  1 год 5 месяцев   |    .torrent скачан:  13 раз   |   
Раздают:  1  
   
загрузка...
 
Автор Сообщение

Galfimbul

avatar Galfimbul


<span class="post-font-serif1">Дракула / Dracula Untold</span>

<span class="post-font-serif1">Год выпуска: 2014
Страна: США, Япония
Жанр: ужасы, фэнтези, боевик, драма, военный
Продолжительность: 01:32:08
Перевод: Русский Профессиональный (полное дублирование) Blu-ray CEE, Пифагор
Cубтитры: нет</span>
<span class="post-font-serif1">Режиссер: Гари Шор / Gary Shore</span>
<span class="post-font-serif1">В ролях: Люк Эванс, Чарльз Дэнс, Сара Гадон, Доминик Купер, Арт Паркинсон, Дайармейд Мерта, Пол Кэй, Уильям Хьюстон, Ной Хантли, Ронан Вайберт и другие .</span>
<span class="post-font-serif1">Описание: Влад Дракула был величайшим правителем, доблестным воином и страстным мужчиной. Но судьба свела его с врагом, коварство которого не знало границ. И тогда Дракула заключил сделку – нечеловеческая сила в обмен на самую малость – бессмертную душу…</span>
<span class="post-font-serif1">Релиз группы </span>
<span class="post-font-serif1">Качество: HDRip / <a href="viewtopic.php?t=5055530" class="postLink">рип с BDRip 720p</a>
Формат: MP4
Видео кодек: XviD
Аудио кодек: AAC
Видео: 480x200 AR:2.40 499 kbps 23.976 fps
Аудио: [Russian] 2ch 48 kHz 128 kbps - Профессиональный (полное дублирование) Blu-ray CEE, Пифагор</span>
GeneralComplete name : D:\Torrents\Dracula Untold.2014.HDRip.XviD.480x.rip by Frost O.S.mp4Format : MPEG-4Format profile : Base MediaCodec ID : isom (isom/iso2)File size : 419 MiBDuration : 1 h 32 minOverall bit rate mode : VariableOverall bit rate : 635 kb/sMovie name : Dracula Untold 2014 HDRip XviD 480x rip by Frost O SGenre : ActionContentType : Short FilmEncoded date : UTC 2017-01-29 10:35:13Tagged date : UTC 2017-01-29 10:35:52Writing application : MkvToMp4 version: 0.224 (x64)Cover : YesComment : rip by Frost O.S

VideoID : 1Format : MPEG-4 VisualFormat profile : Advanced [email protected] settings, BVOP : YesFormat settings, QPel : NoFormat settings, GMC : No warppointsFormat settings, Matrix : CustomCodec ID : 20Duration : 1 h 32 minBit rate mode : VariableBit rate : 499 kb/sMaximum bit rate : 194 Mb/sWidth : 480 pixelsHeight : 200 pixelsDisplay aspect ratio : 2.40:1Frame rate mode : VariableFrame rate : 23.976 (23976/1000) FPSMinimum frame rate : 11.988 FPSMaximum frame rate : 23.976 FPSColor space : YUVChroma subsampling : 4:2:0Bit depth : 8 bitsScan type : ProgressiveCompression mode : LossyBits/(Pixel*Frame) : 0.217Stream size : 329 MiB (79%)Title : avi_GPAC0.5.2_DEV_rev248_g39d5978_masterWriting library : XviD 1.2.1 (UTC 2008-12-04)Language : EnglishTagged date : UTC 2017-01-29 10:35:30

AudioID : 2Format : AACFormat/Info : Advanced Audio CodecFormat profile : LCCodec ID : 40Duration : 1 h 32 minBit rate mode : VariableBit rate : 128 kb/sMaximum bit rate : 135 kb/sChannel(s) : 2 channelsChannel positions : Front: L RSampling rate : 48.0 kHzFrame rate : 46.875 FPS (1024 spf)Compression mode : LossyStream size : 84.4 MiB (20%)Title : Dub_ Blu_ray CEE_[Pifagor] / Dub_ Blu_ray CEE_[Pifagor]Language : RussianDefault : YesAlternate group : 1Encoded date : UTC 2017-01-29 10:35:19Tagged date : UTC 2017-01-29 10:35:30
<div class="clear" style="height: 8px;"></div>

Трекер:  [ 29-Янв-2017 17:30 ]

  

Скачать .torrent

Размер .torrent файла 17 KB


Размер: 419 MB
Хэш (hash) релиза: 6558fb6ce7769afcc86f62932e54e16ddb68fefb

Еще никто не оставлял запись к записи скачать торрент [VIDEO] Дракула Dracula Untold . Будь первым!

!Обратная связь