Family Busines season 04 episode 06
Component Records

Скачать через торрент [VIDEO] Джон Картер John Carter бесплатно русская версия torrent активатор

Статистика раздачи
Размер:  2.16 GB   |    Зарегистрирован:  1 год 2 месяца   |    .torrent скачан:  30 раз   |   
Раздают:  1  
   
загрузка...
 
Автор Сообщение

Galfimbul

avatar Galfimbul


<span class="post-font-serif1">Джон Картер / John Carter</span>

<span class="post-font-serif1">Год выпуска: 2012
Страна: США / Walt Disney Pictures
Жанр: фантастика, фэнтези, боевик, приключения
Продолжительность: 02:12:01
Перевод №1: Русский Профессиональный (полное дублирование) Blu-ray EUR
Перевод №2: Украинский Профессиональный (полное дублирование) Blu-ray EUR
Перевод №3: Русский Авторский (одноголосый, закадровый) Гаврилов
Перевод №4: Русский Авторский (одноголосый, закадровый) Сербин
Оригинальная дорожка: Есть
Cубтитры: русские (forced, full), украинские (forced, full), английские (forced, full)</span>
<span class="post-font-serif1">Режиссер: Эндрю Стэнтон / Andrew Stanton</span>
<span class="post-font-serif1">В ролях: Тейлор Китч, Линн Коллинз, Марк Стронг, Доминик Уэст, Брайан Крэнстон, Саманта Мортон, Уиллем Дефо, Томас Хейден Чёрч, Кирен Хайдз, Джеймс Пьюрфой, Полли Уокер, Дэрил Сабара. и другие .</span>
<span class="post-font-serif1">Описание: Ветеран Гражданской войны в США Джон Картер против своей воли оказывается на Марсе, где попадает в плен к воинственным четырехметровым туземцам. Картеру предстоит не только спастись самому, но и спасти принцессу Дею Торис из Гелиума.</span>
<span class="post-font-serif1">Релиз группы </span>
<span class="post-font-serif1">Качество: BDRip / рип с BDRemux 1080p (HDCLUB)
Формат: MP4
Видео кодек: H.264
Аудио кодек: AAC
Видео: 960x400 AR:2.40 1679 kbps 23.976 fps
Аудио №1: [Russian] 2ch 48 kHz 128 kbps - Профессиональный (полное дублирование) Blu-ray EUR
Аудио №2: [Ukrainian] 2ch 48 kHz 128 kbps - Профессиональный (полное дублирование) Blu-ray EUR
Аудио №3: [Russian] 2ch 48 kHz 128 kbps - Авторский (одноголосый, закадровый) Гаврилов
Аудио №4: [Russian] 2ch 48 kHz 128 kbps - Авторский (одноголосый, закадровый) Сербин
Аудио №5: [English] 2ch 48 kHz 128 kbps - Оригинал</span>
avs [info]: 960x400p 1:1 @ 2997/125 fps (cfr)
x264 [info]: using SAR=1/1
x264 [info]: using cpu capabilities: MMX2 SSE2Fast SSSE3 SSE4.2 AVX FMA3 AVX2 LZCNT BMI2
x264 [info]: profile High, level 4.1

x264 [info]: frame I:1712 Avg QP:18.24 size: 53886
x264 [info]: frame P:42437 Avg QP:20.13 size: 18177
x264 [info]: frame B:145783 Avg QP:22.45 size: 5482
x264 [info]: consecutive B-frames: 2.7% 2.8% 8.8% 22.8% 18.7% 29.9% 5.6% 2.2% 2.2% 1.6% 1.4% 1.1%
x264 [info]: mb I I16..4: 4.7% 74.4% 20.9%
x264 [info]: mb P I16..4: 0.6% 9.6% 1.9% P16..4: 32.9% 36.6% 12.1% 0.0% 0.0% skip: 6.3%
x264 [info]: mb B I16..4: 0.0% 1.1% 0.2% B16..8: 35.6% 18.4% 3.0% direct: 4.1% skip:37.4% L0:41.8% L1:45.5% BI:12.7%
x264 [info]: 8x8 transform intra:79.0% inter:60.7%
x264 [info]: coded y,uvDC,uvAC intra: 91.6% 86.0% 59.9% inter: 21.7% 14.7% 2.1%
x264 [info]: i16 v,h,dc,p: 13% 17% 7% 63%
x264 [info]: i8 v,h,dc,ddl,ddr,vr,hd,vl,hu: 6% 7% 4% 11% 16% 15% 15% 13% 14%
x264 [info]: i4 v,h,dc,ddl,ddr,vr,hd,vl,hu: 7% 6% 3% 10% 17% 15% 16% 12% 14%
x264 [info]: i8c dc,h,v,p: 40% 24% 17% 19%
x264 [info]: Weighted P-Frames: Y:17.5% UV:13.4%
x264 [info]: ref P L0: 50.1% 12.3% 15.9% 6.2% 4.6% 3.3% 2.8% 1.6% 1.5% 1.4% 0.3% 0.0%
x264 [info]: ref B L0: 80.0% 9.2% 4.6% 2.1% 1.5% 1.1% 0.9% 0.4% 0.2%
x264 [info]: ref B L1: 95.0% 5.0%
x264 [info]: kb/s:1679.27

encoded 189932 frames, 13.40 fps, 1679.27 kb/s
GeneralComplete name : D:\Torrents\John Carter.2012.BDRip.x264.960x.rip by Frost O.S.mp4Format : MPEG-4Format profile : Base MediaCodec ID : isom (isom/avc1/iso2)File size : 2.16 GiBDuration : 2 h 12 minOverall bit rate mode : VariableOverall bit rate : 2 342 kb/sMovie name : John Carter 2012 BDRip x264 960x rip by Frost O SGenre : ActionContentType : Short FilmEncoded date : UTC 2017-01-29 09:56:34Tagged date : UTC 2017-01-29 10:04:54Writing application : MkvToMp4 version: 0.224 (x64)Cover : YesComment : rip by Frost O.S

VideoID : 1Format : AVCFormat/Info : Advanced Video CodecFormat profile : [email protected] settings, CABAC : YesFormat settings, ReFrames : 10 framesCodec ID : avc1Codec ID/Info : Advanced Video CodingDuration : 2 h 12 minBit rate : 1 679 kb/sMaximum bit rate : 6 678 kb/sWidth : 960 pixelsHeight : 400 pixelsDisplay aspect ratio : 2.40:1Frame rate mode : ConstantFrame rate : 23.976 (24000/1001) FPSOriginal frame rate : 23.976 (23976/1000) FPSColor space : YUVChroma subsampling : 4:2:0Bit depth : 8 bitsScan type : ProgressiveBits/(Pixel*Frame) : 0.182Stream size : 1.55 GiB (72%)Writing library : x264 core 148 r2705 3f5ed56Encoding settings : cabac=1 / ref=10 / deblock=1:-1:-1 / analyse=0x3:0x113 / me=umh / subme=11 / psy=1 / psy_rd=1.00:0.00 / mixed_ref=1 / me_range=32 / chroma_me=1 / trellis=2 / 8x8dct=1 / cqm=0 / deadzone=21,11 / fast_pskip=1 / chroma_qp_offset=-2 / threads=6 / lookahead_threads=1 / sliced_threads=0 / nr=0 / decimate=1 / interlaced=0 / bluray_compat=0 / constrained_intra=0 / bframes=11 / b_pyramid=2 / b_adapt=2 / b_bias=0 / direct=1 / weightb=1 / open_gop=0 / weightp=2 / keyint=250 / keyint_min=23 / scenecut=40 / intra_refresh=0 / rc=crf / mbtree=0 / crf=19.5 / qcomp=0.75 / qpmin=0 / qpmax=69 / qpstep=4 / ip_ratio=1.40 / pb_ratio=1.30 / aq=2:1.10Language : EnglishEncoded date : UTC 2017-01-29 09:56:34Tagged date : UTC 2017-01-29 09:59:42Color range : LimitedColor primaries : BT.709Transfer characteristics : BT.709Matrix coefficients : BT.709

Audio #1ID : 2Format : AACFormat/Info : Advanced Audio CodecFormat profile : LCCodec ID : 40Duration : 2 h 12 minBit rate mode : VariableBit rate : 128 kb/sMaximum bit rate : 135 kb/sChannel(s) : 2 channelsChannel positions : Front: L RSampling rate : 48.0 kHzFrame rate : 46.875 FPS (1024 spf)Compression mode : LossyStream size : 121 MiB (5%)Title : DUB_Blu_ray EUR / DUB_Blu_ray EURLanguage : RussianDefault : YesAlternate group : 1Encoded date : UTC 2017-01-29 09:58:31Tagged date : UTC 2017-01-29 09:59:42

Audio #2ID : 3Format : AACFormat/Info : Advanced Audio CodecFormat profile : LCCodec ID : 40Duration : 2 h 12 minBit rate mode : VariableBit rate : 128 kb/sMaximum bit rate : 135 kb/sChannel(s) : 2 channelsChannel positions : Front: L RSampling rate : 48.0 kHzFrame rate : 46.875 FPS (1024 spf)Compression mode : LossyStream size : 121 MiB (5%)Title : DUB_Blu_ray EUR / DUB_Blu_ray EURLanguage : UkrainianDefault : NoAlternate group : 1Encoded date : UTC 2017-01-29 09:58:42Tagged date : UTC 2017-01-29 09:59:42

Audio #3ID : 4Format : AACFormat/Info : Advanced Audio CodecFormat profile : LCCodec ID : 40Duration : 2 h 12 minBit rate mode : VariableBit rate : 128 kb/sMaximum bit rate : 135 kb/sChannel(s) : 2 channelsChannel positions : Front: L RSampling rate : 48.0 kHzFrame rate : 46.875 FPS (1024 spf)Compression mode : LossyStream size : 121 MiB (5%)Title : VO_Gavrilov / VO_GavrilovLanguage : RussianDefault : NoAlternate group : 1Encoded date : UTC 2017-01-29 09:58:55Tagged date : UTC 2017-01-29 09:59:42

Audio #4ID : 5Format : AACFormat/Info : Advanced Audio CodecFormat profile : LCCodec ID : 40Duration : 2 h 12 minBit rate mode : VariableBit rate : 128 kb/sMaximum bit rate : 135 kb/sChannel(s) : 2 channelsChannel positions : Front: L RSampling rate : 48.0 kHzFrame rate : 46.875 FPS (1024 spf)Compression mode : LossyStream size : 121 MiB (5%)Title : VO_Serbin / VO_SerbinLanguage : RussianDefault : NoAlternate group : 1Encoded date : UTC 2017-01-29 09:59:07Tagged date : UTC 2017-01-29 09:59:42

Audio #5ID : 6Format : AACFormat/Info : Advanced Audio CodecFormat profile : LCCodec ID : 40Duration : 2 h 12 minBit rate mode : VariableBit rate : 128 kb/sMaximum bit rate : 135 kb/sChannel(s) : 2 channelsChannel positions : Front: L RSampling rate : 48.0 kHzFrame rate : 46.875 FPS (1024 spf)Compression mode : LossyStream size : 121 MiB (5%)Title : Original / OriginalLanguage : EnglishDefault : NoAlternate group : 1Encoded date : UTC 2017-01-29 09:59:23Tagged date : UTC 2017-01-29 09:59:42

Text #1ID : 7Format : Timed TextMuxing mode : sbtlCodec ID : tx3gDuration : 2 h 5 minBit rate mode : VariableBit rate : 3 b/sStream size : 2.55 KiB (0%)Title : forced / forcedLanguage : RussianDefault : YesForced : NoAlternate group : 2Encoded date : UTC 2017-01-29 09:59:41Tagged date : UTC 2017-01-29 09:59:42

Text #2ID : 8Format : Timed TextMuxing mode : sbtlCodec ID : tx3gDuration : 2 h 5 minBit rate mode : VariableBit rate : 67 b/sStream size : 61.2 KiB (0%)Title : full / fullLanguage : RussianDefault : NoForced : NoAlternate group : 2Encoded date : UTC 2017-01-29 09:59:41Tagged date : UTC 2017-01-29 09:59:42

Text #3ID : 9Format : Timed TextMuxing mode : sbtlCodec ID : tx3gDuration : 38 min 19 sBit rate mode : VariableBit rate : 7 b/sStream size : 2.10 KiB (0%)Title : forced / forcedLanguage : UkrainianDefault : NoForced : NoAlternate group : 2Encoded date : UTC 2017-01-29 09:59:41Tagged date : UTC 2017-01-29 09:59:42

Text #4ID : 10Format : Timed TextMuxing mode : sbtlCodec ID : tx3gDuration : 2 h 5 minBit rate mode : VariableBit rate : 63 b/sStream size : 57.6 KiB (0%)Title : full / fullLanguage : UkrainianDefault : NoForced : NoAlternate group : 2Encoded date : UTC 2017-01-29 09:59:41Tagged date : UTC 2017-01-29 09:59:42

Text #5ID : 11Format : Timed TextMuxing mode : sbtlCodec ID : tx3gDuration : 38 min 19 sBit rate mode : VariableBit rate : 5 b/sStream size : 1.42 KiB (0%)Title : forced / forcedLanguage : EnglishDefault : NoForced : NoAlternate group : 2Encoded date : UTC 2017-01-29 09:59:41Tagged date : UTC 2017-01-29 09:59:42

Text #6ID : 12Format : Timed TextMuxing mode : sbtlCodec ID : tx3gDuration : 2 h 2 minBit rate mode : VariableBit rate : 44 b/sStream size : 39.4 KiB (0%)Title : full / fullLanguage : EnglishDefault : NoForced : NoAlternate group : 2Encoded date : UTC 2017-01-29 09:59:41Tagged date : UTC 2017-01-29 09:59:42
<div class="clear" style="height: 8px;"></div>

Трекер:  [ 29-Янв-2017 17:30 ]

  

Скачать .torrent

Размер .torrent файла 11 KB


Размер: 2.16 GB
Хэш (hash) релиза: a171413b667e2110e84b5a750a35111697312850

Еще никто не оставлял запись к записи скачать торрент [VIDEO] Джон Картер John Carter . Будь первым!

!Обратная связь