EPS 39 Kong: The Animated Series | Jej Szerokość Afrodyta / Drop Dead Diva | The Sheikh's Secret Babies

Скачать через торрент [VIDEO] Джон Картер John Carter бесплатно русская версия torrent активатор

Статистика раздачи
Размер:  597 MB   |    Зарегистрирован:  1 год 5 месяцев   |    .torrent скачан:  24 раза   |   
Раздают:  1  
   
загрузка...
 
Автор Сообщение

Galfimbul

avatar Galfimbul


<span class="post-font-serif1">Джон Картер / John Carter</span>

<span class="post-font-serif1">Год выпуска: 2012
Страна: США / Walt Disney Pictures
Жанр: фантастика, фэнтези, боевик, приключения
Продолжительность: 02:12:01
Перевод: Русский Профессиональный (полное дублирование) Blu-ray EUR
Cубтитры: нет</span>
<span class="post-font-serif1">Режиссер: Эндрю Стэнтон / Andrew Stanton</span>
<span class="post-font-serif1">В ролях: Тейлор Китч, Линн Коллинз, Марк Стронг, Доминик Уэст, Брайан Крэнстон, Саманта Мортон, Уиллем Дефо, Томас Хейден Чёрч, Кирен Хайдз, Джеймс Пьюрфой, Полли Уокер, Дэрил Сабара. и другие .</span>
<span class="post-font-serif1">Описание: Ветеран Гражданской войны в США Джон Картер против своей воли оказывается на Марсе, где попадает в плен к воинственным четырехметровым туземцам. Картеру предстоит не только спастись самому, но и спасти принцессу Дею Торис из Гелиума.</span>
<span class="post-font-serif1">Релиз группы </span>
<span class="post-font-serif1">Качество: HDRip / <a href="viewtopic.php?t=4457396" class="postLink">рип с BDRip 720p</a>
Формат: MP4
Видео кодек: XviD
Аудио кодек: AAC
Видео: 480x200 AR:2.40 496 kbps 23.976 fps
Аудио: [Russian] 2ch 48 kHz 128 kbps - Профессиональный (полное дублирование) Blu-ray EUR</span>
GeneralComplete name : D:\Torrents\John Carter.2012.HDRip.XviD.480x.rip by Frost O.S.mp4Format : MPEG-4Format profile : Base MediaCodec ID : isom (isom/iso2)File size : 597 MiBDuration : 2 h 12 minOverall bit rate mode : VariableOverall bit rate : 632 kb/sMovie name : John Carter 2012 HDRip XviD 480x rip by Frost O SGenre : ActionContentType : Short FilmEncoded date : UTC 2017-01-29 10:10:33Tagged date : UTC 2017-01-29 10:12:42Writing application : MkvToMp4 version: 0.224 (x64)Cover : YesComment : rip by Frost O.S

VideoID : 1Format : MPEG-4 VisualFormat profile : Advanced [email protected] settings, BVOP : YesFormat settings, QPel : NoFormat settings, GMC : No warppointsFormat settings, Matrix : CustomCodec ID : 20Duration : 2 h 12 minBit rate mode : VariableBit rate : 496 kb/sMaximum bit rate : 2 699 kb/sWidth : 480 pixelsHeight : 200 pixelsDisplay aspect ratio : 2.40:1Frame rate mode : ConstantFrame rate : 23.976 (24000/1001) FPSOriginal frame rate : 23.976 (23976/1000) FPSColor space : YUVChroma subsampling : 4:2:0Bit depth : 8 bitsScan type : ProgressiveCompression mode : LossyBits/(Pixel*Frame) : 0.216Stream size : 468 MiB (79%)Title : avi_GPAC0.5.2_DEV_rev248_g39d5978_masterWriting library : XviD 1.2.1 (UTC 2008-12-04)Language : EnglishTagged date : UTC 2017-01-29 10:11:37

AudioID : 2Format : AACFormat/Info : Advanced Audio CodecFormat profile : LCCodec ID : 40Duration : 2 h 12 minBit rate mode : VariableBit rate : 128 kb/sMaximum bit rate : 135 kb/sChannel(s) : 2 channelsChannel positions : Front: L RSampling rate : 48.0 kHzFrame rate : 46.875 FPS (1024 spf)Compression mode : LossyStream size : 121 MiB (20%)Title : DUB_Blu_ray EUR / DUB_Blu_ray EURLanguage : RussianDefault : YesAlternate group : 1Encoded date : UTC 2017-01-29 10:11:22Tagged date : UTC 2017-01-29 10:11:37
<div class="clear" style="height: 8px;"></div>

Трекер:  [ 29-Янв-2017 17:30 ]

  

Скачать .torrent

Размер .torrent файла 12 KB


Размер: 597 MB
Хэш (hash) релиза: 701a849cb68f14e6a4a5ea3a1407dfe6af9887

Еще никто не оставлял запись к записи скачать торрент [VIDEO] Джон Картер John Carter . Будь первым!

!Обратная связь