Vol. 1 Ch. 11 - Pocket Money | Ouran High School Host Club | Olwen Fouere

Скачать через торрент [VIDEO] Большой и добрый великан The BFG бесплатно русская версия torrent активатор

Статистика раздачи
Размер:  2.26 GB   |    Зарегистрирован:  1 год 5 месяцев   |    .torrent скачан:  35 раз   |   
Раздают:  1  
   
загрузка...
 
Автор Сообщение

Galfimbul

avatar Galfimbul


Большой и добрый великан / The BFG
«Если твой друг великан, тебя ждут великие дела»
Год выпуска: 2016
Оригинальное название: The BFG
Страна: Великобритания, Канада, США
Жанр: фэнтези, приключения, семейный
Возраст: 12+

Режиссер: Стивен Спилберг / Steven Spielberg

В ролях: Марк Райлэнс, Руби Барнхилл, Пенелопа Уилтон, Джемейн Клемент, Ребекка Холл, Рейф Сполл, Билл Хейдер, Оулавюр Дарри Оулафссон, Адам Годли, Майкл Адамуэйт

Описание: В центре истории девочка по имени Софи, которая не смогла заснуть до полуночи и в окошко увидела огромного великана, который подходил к соседним домам и начинал дуть в окна спален. В полном соответствии со старинными поверьями и детскими страшилками, великан увидел Софи и унес к себе домой, в страну великанов.

Как оказалось, он в этой самой стране был единственным добрым великаном: действуя в обстановке строжайшей секретности, он коллекционировал хорошие сны, которые по ночам раздавал детям. Уши у него устроены таким образом, что он слышит, что и о чем снится ребятам, и никогда не позволяет им видеть кошмары.

Продолжительность: 01:57:39
Перевод: Дублированный [Лицензия]
Оригинальная дорожка: есть

Автор рипа:

Качество видео: BDRip Исходник: Blu-Ray Remux (1080p) Формат: mp4
Видео кодек: MPEG-4 AVC Аудио кодек: AAC
Видео: 1280x536 (2.40:1) at 23.976 fps, AVC at 2 486 kbps avg, 0.151 bit/pixel
Аудио №1 Rus: 48.0 KHz, AAC, 2 ch, 128.0 Kbps
Аудио №2 Eng: 48.0 KHz, AAC, 2 ch, 128.0 Kbps
Субтитры: русские (форсированные, полные), английские (полные)
Навигация по главам: есть
Размер: 2.26 GiB
avs [info]: 1280x536p 1:1 @ 24000/1001 fps (cfr)
x264 [info]: using SAR=1/1
x264 [info]: using cpu capabilities: MMX2 SSE2Fast SSSE3 Cache64
x264 [info]: profile High, level 4.1
x264 [info]: frame I:1210 Avg QP:13.67 size:121535
x264 [info]: frame P:38319 Avg QP:17.16 size: 30153
x264 [info]: frame B:129715 Avg QP:20.45 size: 6872
x264 [info]: consecutive B-frames: 1.5% 2.2% 11.9% 26.0% 20.3% 31.9% 6.1%
x264 [info]: mb I I16..4: 9.3% 65.8% 24.9%
x264 [info]: mb P I16..4: 1.6% 10.4% 1.6% P16..4: 37.1% 22.3% 14.5% 0.0% 0.0% skip:12.5%
x264 [info]: mb B I16..4: 0.1% 0.8% 0.2% B16..8: 37.0% 6.4% 1.6% direct: 4.8% skip:49.1% L0:40.1% L1:45.6% BI:14.3%
x264 [info]: 8x8 transform intra:74.3% inter:58.7%
x264 [info]: coded y,uvDC,uvAC intra: 77.6% 85.5% 64.6% inter: 16.9% 21.9% 4.6%
x264 [info]: i16 v,h,dc,p: 40% 14% 10% 36%
x264 [info]: i8 v,h,dc,ddl,ddr,vr,hd,vl,hu: 20% 14% 20% 5% 8% 8% 8% 8% 8%
x264 [info]: i4 v,h,dc,ddl,ddr,vr,hd,vl,hu: 23% 15% 15% 6% 10% 9% 9% 7% 7%
x264 [info]: i8c dc,h,v,p: 49% 21% 20% 11%
x264 [info]: Weighted P-Frames: Y:8.0% UV:3.9%
x264 [info]: ref P L0: 52.0% 13.1% 16.2% 6.1% 4.8% 3.7% 3.4% 0.6% 0.1%
x264 [info]: ref B L0: 83.3% 8.9% 4.1% 2.2% 1.0% 0.5%
x264 [info]: ref B L1: 94.5% 5.5%
x264 [info]: kb/s:2486.42
encoded 169244 frames, 3.14 fps, 2486.42 kb/s
GeneralFormat : MPEG-4Format profile : Base MediaCodec ID : isom (isom)File size : 2.26 GiBDuration : 1 h 57 minOverall bit rate mode : VariableOverall bit rate : 2 754 kb/sMovie name : Большой и добрый великан | KinoGadgetPerformer : Стивен СпилбергDirector : Стивен СпилбергActor : Марк Райлэнс / Руби Барнхилл / Пенелопа Уилтон / Джемейн Клемент / Ребекка Холл / Рейф Сполл / Билл Хейдер / Оулавюр Дарри Оулафссон / Адам Годли / Майкл АдамуэйтScreenplay by : Мелисса Мэтисон / Роальд ДальProducer : Фрэнк Маршалл / Сэм Мерсер / Стивен СпилбергGenre : Adventure, FamilyContentType : Short FilmRecorded date : 2016Encoded date : UTC 2017-01-26 09:49:18Tagged date : UTC 2017-01-26 09:54:15Cover : YesContentRating : mpaa|PG|200|LongDescription : В центре истории девочка по имени Софи, которая не смогла заснуть до полуночи и в окошко увидела огромного великана, который подходил к соседним домам и начинал дуть в окна спален. В полном соответствии со старинными поверьями и детскими страшилками, великан увидел Софи и унес к себе домой, в страну великанов. / / Как оказалось, он в этой самой стране был единственным добрым великаном: действуя в обстановке строжайшей секретности, он коллекционировал хорошие сны, которые по ночам раздавал детям. Уши у него устроены таким образом, что он слышит, что и о чем снится ребятам, и никогда не позволяет им видеть кошмары.HDVideo : Yes

VideoID : 1Format : AVCFormat/Info : Advanced Video CodecFormat profile : [email protected] settings, CABAC : YesFormat settings, ReFrames : 7 framesCodec ID : avc1Codec ID/Info : Advanced Video CodingDuration : 1 h 57 minBit rate : 2 486 kb/sMaximum bit rate : 12.5 Mb/sWidth : 1 280 pixelsHeight : 536 pixelsDisplay aspect ratio : 2.40:1Frame rate mode : ConstantFrame rate : 23.976 (24000/1001) FPSColor space : YUVChroma subsampling : 4:2:0Bit depth : 8 bitsScan type : ProgressiveBits/(Pixel*Frame) : 0.151Stream size : 2.04 GiB (90%)Writing library : x264 core 148 r2638 7599210Encoding settings : cabac=1 / ref=7 / deblock=1:-1:-1 / analyse=0x3:0x113 / me=umh / subme=7 / psy=1 / psy_rd=1.00:0.15 / mixed_ref=1 / me_range=32 / chroma_me=1 / trellis=2 / 8x8dct=1 / cqm=0 / deadzone=21,11 / fast_pskip=1 / chroma_qp_offset=-3 / threads=3 / lookahead_threads=1 / sliced_threads=0 / nr=0 / decimate=1 / interlaced=0 / bluray_compat=0 / constrained_intra=0 / bframes=6 / b_pyramid=2 / b_adapt=2 / b_bias=0 / direct=1 / weightb=1 / open_gop=0 / weightp=2 / keyint=240 / keyint_min=23 / scenecut=40 / intra_refresh=0 / rc_lookahead=40 / rc=crf / mbtree=1 / crf=18.0 / qcomp=0.60 / qpmin=0 / qpmax=69 / qpstep=4 / vbv_maxrate=62500 / vbv_bufsize=78125 / crf_max=0.0 / nal_hrd=none / filler=0 / ip_ratio=1.40 / aq=1:1.00Encoded date : UTC 2017-01-26 00:17:42Tagged date : UTC 2017-01-26 09:50:07

Audio #1ID : 2Format : AACFormat/Info : Advanced Audio CodecFormat profile : LCCodec ID : 40Duration : 1 h 57 minBit rate mode : VariableBit rate : 128 kb/sMaximum bit rate : 135 kb/sChannel(s) : 2 channelsChannel positions : Front: L RSampling rate : 48.0 kHzFrame rate : 46.875 FPS (1024 spf)Compression mode : LossyStream size : 108 MiB (5%)Title : Dub [license]Language : RussianEncoded date : UTC 2017-01-26 09:19:24Tagged date : UTC 2017-01-26 09:50:07

Audio #2ID : 3Format : AACFormat/Info : Advanced Audio CodecFormat profile : LCCodec ID : 40Duration : 1 h 57 minBit rate mode : VariableBit rate : 128 kb/sMaximum bit rate : 135 kb/sChannel(s) : 2 channelsChannel positions : Front: L RSampling rate : 48.0 kHzFrame rate : 46.875 FPS (1024 spf)Compression mode : LossyStream size : 108 MiB (5%)Language : EnglishEncoded date : UTC 2017-01-26 09:36:56Tagged date : UTC 2017-01-26 09:50:07

Text #1ID : 4Format : Timed TextCodec ID : tx3gDuration : 1 h 38 minBit rate mode : VariableBit rate : 0 b/sStream size : 332 Bytes (0%)Title : ForcedLanguage : RussianForced : NoEncoded date : UTC 2017-01-26 09:50:07Tagged date : UTC 2017-01-26 09:50:07

Text #2ID : 5Format : Timed TextCodec ID : tx3gDuration : 1 h 49 minBit rate mode : VariableBit rate : 54 b/sStream size : 43.1 KiB (0%)Title : FullLanguage : RussianForced : NoEncoded date : UTC 2017-01-26 09:50:07Tagged date : UTC 2017-01-26 09:50:07

Text #3ID : 6Format : Timed TextCodec ID : tx3gDuration : 1 h 49 minBit rate mode : VariableBit rate : 35 b/sStream size : 28.1 KiB (0%)Title : FullLanguage : EnglishForced : NoEncoded date : UTC 2017-01-26 09:50:07Tagged date : UTC 2017-01-26 09:50:07

Menu00:00:00.000 : 00:00:00.00000:07:56.935 : 00:07:56.93500:12:26.704 : 00:12:26.70400:19:27.083 : 00:19:27.08300:23:47.384 : 00:23:47.38400:25:35.492 : 00:25:35.49200:28:43.889 : 00:28:43.88900:37:19.362 : 00:37:19.36200:41:56.264 : 00:41:56.26400:46:21.028 : 00:46:21.02800:52:33.942 : 00:52:33.94200:58:18.078 : 00:58:18.07801:03:33.768 : 01:03:33.76801:12:04.904 : 01:12:04.90401:16:24.330 : 01:16:24.33001:26:29.393 : 01:26:29.39301:36:50.847 : 01:36:50.84701:42:01.615 : 01:42:01.61501:46:37.099 : 01:46:37.09901:49:29.229 : 01:49:29.229
<a href="tracker.php?rid=39840292" class="postLink"> </a>

Трекер:  [ 26-Янв-2017 13:00 ]

  

Скачать .torrent

Размер .torrent файла 11 KB


Размер: 2.26 GB
Хэш (hash) релиза: 5ff7c4431fe53ec7865b911e0f77ddd011cf09cf

Еще никто не оставлял запись к записи скачать торрент [VIDEO] Большой и добрый великан The BFG . Будь первым!

!Обратная связь