Vincent Colombe | Легенда о Коловрате (2017) BDRip 720р от HQCLUB | Лицензия | Animal Planet. Зоопарк / The Bronx Zoo [02х01-02 из 10] (2018) HDTVRip от GeneralFilm | P1

Скачать через торрент [VIDEO] Чудо на Гудзоне Sully бесплатно русская версия torrent активатор

Статистика раздачи
Размер:  1.79 GB   |    Зарегистрирован:  1 год 5 месяцев   |    .torrent скачан:  45 раз   |   
Раздают:  1  
   
загрузка...
 
Автор Сообщение

Galfimbul

avatar Galfimbul


Чудо на Гудзоне / Sully
«Правдивая история о чудесном спасении»
Год выпуска: 2016
Оригинальное название: Sully
Страна: США
Жанр: драма, биография
Возраст: 16+

Режиссер: Клинт Иствуд

В ролях: Том Хэнкс, Аарон Экхарт, Валери Махаффей, Делфи Хэррингтон, Майк О`Мэлли, Джейми Шеридан, Анна Ганн, Холт МакКэллани, Ахмед Хуссэйн, Лора Линни

Описание: Произошедшее 15 января 2009 года назовут «Чудом на Гудзоне». В тот день капитан рейса 1549 Чесли Салленбергер совершил аварийную посадку самолета A320 на холодные воды реки Гудзон в Нью-Йорке. При этом никто из находившихся на борту 155 человек не пострадал. Но, несмотря на все почести со стороны общественности и СМИ, было начато расследование, которое угрожало профессиональной репутации и многолетней карьере капитана Салли.

Продолжительность: 01:35:50
Перевод: Дублированный [Лицензия]
Оригинальная дорожка: есть

Автор рипа:

Качество видео: BDRip Исходник: Blu-Ray Remux (1080p) Формат: mp4
Видео кодек: MPEG-4 AVC Аудио кодек: AAC
Видео: 1280x536 (2.40:1) at 23.976 fps, AVC at 2 410 kbps avg, 0.147 bit/pixel
Аудио №1 Rus: 48.0 KHz, AAC, 2 ch, 128.0 Kbps
Аудио №2 Eng: 48.0 KHz, AAC, 2 ch, 128.0 Kbps
Субтитры: русские (полные), английские (полные)
Навигация по главам: есть
Размер: 1.79 GiB
avs [info]: 1280x536p 1:1 @ 24000/1001 fps (cfr)
x264 [info]: using SAR=1/1
x264 [info]: using cpu capabilities: MMX2 SSE2Fast SSSE3 Cache64
x264 [info]: profile High, level 4.1
x264 [info]: frame I:1365 Avg QP:12.68 size:114876
x264 [info]: frame P:29056 Avg QP:16.09 size: 29340
x264 [info]: frame B:107457 Avg QP:18.13 size: 6730
x264 [info]: consecutive B-frames: 1.8% 1.9% 8.5% 20.5% 19.0% 35.1% 5.7% 3.3% 4.2%
x264 [info]: mb I I16..4: 13.9% 57.9% 28.2%
x264 [info]: mb P I16..4: 1.4% 10.4% 1.9% P16..4: 36.0% 24.3% 14.1% 0.0% 0.0% skip:11.9%
x264 [info]: mb B I16..4: 0.1% 0.8% 0.2% B16..8: 37.4% 7.4% 1.6% direct: 4.1% skip:48.6% L0:41.8% L1:45.1% BI:13.2%
x264 [info]: 8x8 transform intra:72.2% inter:58.1%
x264 [info]: coded y,uvDC,uvAC intra: 81.9% 73.9% 47.4% inter: 16.1% 16.0% 2.3%
x264 [info]: i16 v,h,dc,p: 30% 15% 14% 41%
x264 [info]: i8 v,h,dc,ddl,ddr,vr,hd,vl,hu: 19% 20% 19% 5% 7% 7% 8% 7% 8%
x264 [info]: i4 v,h,dc,ddl,ddr,vr,hd,vl,hu: 21% 20% 13% 6% 9% 9% 9% 7% 7%
x264 [info]: i8c dc,h,v,p: 53% 21% 19% 6%
x264 [info]: Weighted P-Frames: Y:4.2% UV:1.3%
x264 [info]: ref P L0: 49.9% 11.0% 17.9% 6.3% 5.3% 3.7% 3.4% 2.2% 0.3% 0.0%
x264 [info]: ref B L0: 78.4% 11.1% 5.0% 2.4% 1.7% 1.0% 0.4%
x264 [info]: ref B L1: 93.2% 6.8%
x264 [info]: kb/s:2410.19
encoded 137878 frames, 2.78 fps, 2410.19 kb/s
GeneralFormat : MPEG-4Format profile : Base MediaCodec ID : isom (isom)File size : 1.79 GiBDuration : 1 h 35 minOverall bit rate mode : VariableOverall bit rate : 2 678 kb/sMovie name : Чудо на Гудзоне | KinoGadgetPerformer : Клинт ИствудDirector : Клинт ИствудActor : Том Хэнкс / Аарон Экхарт / Валери Махаффей / Делфи Хэррингтон / Майк О`Мэлли / Джейми Шеридан / Анна Ганн / Холт МакКэллани / Ахмед Хуссэйн / Лора ЛинниScreenplay by : Тодд Комарники / Чесли Салленбергер / Джеффри ЗеслоуProducer : Клинт Иствуд / Фрэнк Маршалл / Брюс БерманGenre : DramaContentType : Short FilmRecorded date : 2016Encoded date : UTC 2017-01-24 07:55:16Tagged date : UTC 2017-01-24 08:26:56Cover : YesContentRating : mpaa|PG-13|300|LongDescription : Произошедшее 15 января 2009 года назовут «Чудом на Гудзоне». В тот день капитан рейса 1549 Чесли Салленбергер совершил аварийную посадку самолета A320 на холодные воды реки Гудзон в Нью-Йорке. При этом никто из находившихся на борту 155 человек не пострадал. Но, несмотря на все почести со стороны общественности и СМИ, было начато расследование, которое угрожало профессиональной репутации и многолетней карьере капитана Салли.HDVideo : Yes

VideoID : 1Format : AVCFormat/Info : Advanced Video CodecFormat profile : [email protected] settings, CABAC : YesFormat settings, ReFrames : 8 framesCodec ID : avc1Codec ID/Info : Advanced Video CodingDuration : 1 h 35 minBit rate : 2 410 kb/sMaximum bit rate : 15.7 Mb/sWidth : 1 280 pixelsHeight : 536 pixelsDisplay aspect ratio : 2.40:1Frame rate mode : ConstantFrame rate : 23.976 (24000/1001) FPSColor space : YUVChroma subsampling : 4:2:0Bit depth : 8 bitsScan type : ProgressiveBits/(Pixel*Frame) : 0.147Stream size : 1.61 GiB (90%)Writing library : x264 core 148 r2638 7599210Encoding settings : cabac=1 / ref=8 / deblock=1:-1:-1 / analyse=0x3:0x113 / me=umh / subme=7 / psy=1 / psy_rd=1.00:0.15 / mixed_ref=1 / me_range=32 / chroma_me=1 / trellis=2 / 8x8dct=1 / cqm=0 / deadzone=21,11 / fast_pskip=1 / chroma_qp_offset=-3 / threads=3 / lookahead_threads=1 / sliced_threads=0 / nr=0 / decimate=1 / interlaced=0 / bluray_compat=0 / constrained_intra=0 / bframes=8 / b_pyramid=2 / b_adapt=2 / b_bias=0 / direct=1 / weightb=1 / open_gop=0 / weightp=2 / keyint=240 / keyint_min=23 / scenecut=40 / intra_refresh=0 / rc_lookahead=40 / rc=crf / mbtree=1 / crf=17.0 / qcomp=0.60 / qpmin=0 / qpmax=69 / qpstep=4 / vbv_maxrate=62500 / vbv_bufsize=78125 / crf_max=0.0 / nal_hrd=none / filler=0 / ip_ratio=1.40 / aq=1:1.00Encoded date : UTC 2017-01-24 00:15:01Tagged date : UTC 2017-01-24 07:56:10

Audio #1ID : 2Format : AACFormat/Info : Advanced Audio CodecFormat profile : LCCodec ID : 40Duration : 1 h 35 minBit rate mode : VariableBit rate : 128 kb/sMaximum bit rate : 134 kb/sChannel(s) : 2 channelsChannel positions : Front: L RSampling rate : 48.0 kHzFrame rate : 46.875 FPS (1024 spf)Compression mode : LossyStream size : 87.7 MiB (5%)Title : Dub (license)Language : RussianEncoded date : UTC 2017-01-24 00:18:07Tagged date : UTC 2017-01-24 07:56:10

Audio #2ID : 3Format : AACFormat/Info : Advanced Audio CodecFormat profile : LCCodec ID : 40Duration : 1 h 35 minBit rate mode : VariableBit rate : 128 kb/sMaximum bit rate : 135 kb/sChannel(s) : 2 channelsChannel positions : Front: L RSampling rate : 48.0 kHzFrame rate : 46.875 FPS (1024 spf)Compression mode : LossyStream size : 87.7 MiB (5%)Language : EnglishEncoded date : UTC 2017-01-24 00:23:54Tagged date : UTC 2017-01-24 07:56:10

Text #1ID : 4Format : Timed TextCodec ID : tx3gDuration : 1 h 32 minBit rate mode : VariableBit rate : 123 b/sStream size : 83.0 KiB (0%)Title : FullLanguage : RussianForced : NoEncoded date : UTC 2017-01-24 07:56:10Tagged date : UTC 2017-01-24 07:56:10

Text #2ID : 5Format : Timed TextCodec ID : tx3gDuration : 1 h 32 minBit rate mode : VariableBit rate : 80 b/sStream size : 53.8 KiB (0%)Title : FullLanguage : EnglishForced : NoEncoded date : UTC 2017-01-24 07:56:10Tagged date : UTC 2017-01-24 07:56:10

Menu00:00:00.000 : Chapter 100:11:12.505 : Chapter 200:18:06.168 : Chapter 300:29:57.921 : Chapter 400:38:55.416 : Chapter 500:49:20.749 : Chapter 601:00:50.855 : Chapter 701:08:16.383 : Chapter 801:18:09.810 : Chapter 901:26:59.797 : Chapter 10
<a href="tracker.php?rid=39840292" class="postLink"> </a>

Трекер:  [ 24-Янв-2017 11:00 ]

  

Скачать .torrent

Размер .torrent файла 18 KB


Размер: 1.79 GB
Хэш (hash) релиза: 2f2da4ce9d013364c156a6b441ac4ed8b621c298

Торренты, похожие на [VIDEO] Чудо на Гудзоне Sully скачать торрент

Форум Название Автор Размер S L Добавлен
Видео (Фильмы/Клипы) ·· [VIDEO] Чудо на Гудзоне / Sully (Клинт Иствуд / Clint Eastwood) [2016, драма, биография, HDRip] [MP4, 960x] Dub (Rus, Ukr), Original, Sub (rus, ukr, eng) Galfimbul 1032343341985 MB 0 0 1482744826

12:33

26-Дек-16

Видео (Фильмы/Клипы) ·· [VIDEO] Чудо на Гудзоне / Sully (Клинт Иствуд / Clint Eastwood) [2016, драма, биография, HDRip] [MP4, 480x] Dub Galfimbul 369311848352 MB 0 0 1482744822

12:33

26-Дек-16

Еще никто не оставлял запись к записи скачать торрент [VIDEO] Чудо на Гудзоне Sully . Будь первым!

!Обратная связь