Pod prikritie S04E10 Pod prikritie S04E10 | » Serie TV Sub ITA | Télécharger Part 6

Скачать через торрент [VIDEO] Великолепная семерка The Magnificent Seven бесплатно русская версия torrent активатор

Статистика раздачи
Размер:  2.72 GB   |    Зарегистрирован:  1 год 5 месяцев   |    .torrent скачан:  32 раза   |   
Раздают:  1  
   
загрузка...
 
Автор Сообщение

Galfimbul

avatar Galfimbul


Великолепная семерка / The Magnificent Seven
«Justice has a number»
Год выпуска: 2016
Оригинальное название: The Magnificent Seven
Страна: США
Жанр: боевик, приключения, вестерн
Возраст: 16+

Режиссер: Антуан Фукуа / Antoine Fuqua

В ролях: Дензел Вашингтон, Крис Прэтт, Итэн Хоук, Винсент Д`Онофрио, Бён Хон Ли, Мануэль Рульфо, Мартин Сенсмейер, Хейли Беннетт, Питер Сарсгаард, Люк Граймс

Описание: Семеро отважных искателей приключений встают на защиту жителей маленького городка, угнетаемого бандой грабителей.

Продолжительность: 02:12:50
Перевод: Дублированный [Лицензия]
Оригинальная дорожка: есть

Автор рипа:

Качество видео: BDRip Исходник: Blu-Ray Remux (1080p) Формат: mp4
Видео кодек: MPEG-4 AVC Аудио кодек: AAC
Видео: 1280x536 (2.40:1) at 23.976 fps, AVC at 2 667 kbps avg, 0.162 bit/pixel
Аудио №1 Rus: 48.0 KHz, AAC, 2 ch, 128.0 Kbps
Аудио №2 Eng: 48.0 KHz, AAC, 2 ch, 128.0 Kbps
Субтитры: нет
Навигация по главам: нет
Размер: 2.72 GiB
avs [info]: 1280x536p 1:1 @ 24000/1001 fps (cfr)
x264 [info]: using SAR=1/1
x264 [info]: using cpu capabilities: MMX2 SSE2Fast SSSE3 Cache64
x264 [info]: profile High, level 4.1
x264 [info]: frame I:2396 Avg QP:16.84 size:116676
x264 [info]: frame P:39640 Avg QP:20.64 size: 30705
x264 [info]: frame B:149052 Avg QP:23.53 size: 7782
x264 [info]: consecutive B-frames: 2.0% 2.0% 4.4% 27.1% 17.8% 29.7% 7.1% 7.6% 1.6% 0.8%
x264 [info]: mb I I16..4: 8.6% 67.4% 23.9%
x264 [info]: mb P I16..4: 1.2% 8.4% 1.2% P16..4: 39.8% 22.5% 14.2% 0.0% 0.0% skip:12.7%
x264 [info]: mb B I16..4: 0.1% 0.7% 0.1% B16..8: 43.8% 6.9% 1.8% direct: 3.8% skip:42.9% L0:43.1% L1:47.6% BI: 9.3%
x264 [info]: 8x8 transform intra:75.6% inter:64.3%
x264 [info]: coded y,uvDC,uvAC intra: 82.1% 80.5% 53.4% inter: 19.8% 18.9% 1.8%
x264 [info]: i16 v,h,dc,p: 27% 30% 11% 32%
x264 [info]: i8 v,h,dc,ddl,ddr,vr,hd,vl,hu: 17% 15% 24% 5% 7% 8% 8% 7% 8%
x264 [info]: i4 v,h,dc,ddl,ddr,vr,hd,vl,hu: 22% 18% 12% 6% 9% 9% 9% 7% 7%
x264 [info]: i8c dc,h,v,p: 49% 21% 20% 10%
x264 [info]: Weighted P-Frames: Y:6.4% UV:4.3%
x264 [info]: ref P L0: 48.5% 14.0% 18.0% 5.7% 5.1% 3.4% 3.2% 1.9% 0.2% 0.0%
x264 [info]: ref B L0: 79.1% 10.8% 4.9% 2.3% 1.6% 0.9% 0.4%
x264 [info]: ref B L1: 93.9% 6.1%
x264 [info]: kb/s:2666.59
encoded 191088 frames, 2.57 fps, 2666.59 kb/s
GeneralFormat : MPEG-4Format profile : Base MediaCodec ID : isom (isom)File size : 2.72 GiBDuration : 2 h 12 minOverall bit rate mode : VariableOverall bit rate : 2 934 kb/sMovie name : Великолепная семерка | KinoGadgetPerformer : Антуан ФукуаDirector : Антуан ФукуаActor : Дензел Вашингтон / Крис Прэтт / Итэн Хоук / Винсент Д`Онофрио / Бён Хон Ли / Мануэль Рульфо / Мартин Сенсмейер / Хейли Беннетт / Питер Сарсгаард / Люк ГраймсScreenplay by : Акира Куросава / Синобу Хасимото / Хидэо ОгуниProducer : Роджер Бирнбаум / Тодд Блэк / Брюс БерманGenre : Action, Adventure, WesternContentType : Short FilmRecorded date : 2016Encoded date : UTC 2017-01-18 08:48:00Tagged date : UTC 2017-01-18 09:29:26Cover : YesContentRating : mpaa|PG-13|300|LongDescription : Семеро отважных искателей приключений встают на защиту жителей маленького городка, угнетаемого бандой грабителей.HDVideo : Yes

VideoID : 1Format : AVCFormat/Info : Advanced Video CodecFormat profile : [email protected] settings, CABAC : YesFormat settings, ReFrames : 8 framesCodec ID : avc1Codec ID/Info : Advanced Video CodingDuration : 2 h 12 minBit rate : 2 667 kb/sMaximum bit rate : 15.3 Mb/sWidth : 1 280 pixelsHeight : 536 pixelsDisplay aspect ratio : 2.40:1Frame rate mode : ConstantFrame rate : 23.976 (24000/1001) FPSColor space : YUVChroma subsampling : 4:2:0Bit depth : 8 bitsScan type : ProgressiveBits/(Pixel*Frame) : 0.162Stream size : 2.47 GiB (91%)Writing library : x264 core 148 r2638 7599210Encoding settings : cabac=1 / ref=8 / deblock=1:-1:-1 / analyse=0x3:0x113 / me=umh / subme=7 / psy=1 / psy_rd=1.00:0.15 / mixed_ref=1 / me_range=32 / chroma_me=1 / trellis=2 / 8x8dct=1 / cqm=0 / deadzone=21,11 / fast_pskip=1 / chroma_qp_offset=-3 / threads=3 / lookahead_threads=1 / sliced_threads=0 / nr=0 / decimate=1 / interlaced=0 / bluray_compat=0 / constrained_intra=0 / bframes=9 / b_pyramid=2 / b_adapt=2 / b_bias=0 / direct=1 / weightb=1 / open_gop=0 / weightp=2 / keyint=240 / keyint_min=23 / scenecut=40 / intra_refresh=0 / rc_lookahead=40 / rc=crf / mbtree=1 / crf=20.0 / qcomp=0.60 / qpmin=0 / qpmax=69 / qpstep=4 / vbv_maxrate=62500 / vbv_bufsize=78125 / crf_max=0.0 / nal_hrd=none / filler=0 / ip_ratio=1.40 / aq=1:1.00Encoded date : UTC 2017-01-18 06:47:45Tagged date : UTC 2017-01-18 08:48:46

Audio #1ID : 2Format : AACFormat/Info : Advanced Audio CodecFormat profile : LCCodec ID : 40Duration : 2 h 12 minBit rate mode : VariableBit rate : 128 kb/sMaximum bit rate : 135 kb/sChannel(s) : 2 channelsChannel positions : Front: L RSampling rate : 48.0 kHzFrame rate : 46.875 FPS (1024 spf)Compression mode : LossyStream size : 122 MiB (4%)Title : Dub [license]Language : RussianEncoded date : UTC 2017-01-18 06:52:17Tagged date : UTC 2017-01-18 08:48:46

Audio #2ID : 3Format : AACFormat/Info : Advanced Audio CodecFormat profile : LCCodec ID : 40Duration : 2 h 12 minBit rate mode : VariableBit rate : 128 kb/sMaximum bit rate : 135 kb/sChannel(s) : 2 channelsChannel positions : Front: L RSampling rate : 48.0 kHzFrame rate : 46.875 FPS (1024 spf)Compression mode : LossyStream size : 122 MiB (4%)Language : EnglishEncoded date : UTC 2017-01-18 07:05:18Tagged date : UTC 2017-01-18 08:48:46
<a href="tracker.php?rid=39840292" class="postLink"> </a>

Трекер:  [ 22-Янв-2017 19:00 ]

  

Скачать .torrent

Размер .torrent файла 14 KB


Размер: 2.72 GB
Хэш (hash) релиза: e1397b378645c147de98c929bacd1c6f24e991d6

Еще никто не оставлял запись к записи скачать торрент [VIDEO] Великолепная семерка The Magnificent Seven . Будь первым!

!Обратная связь