Didier Bourdon | Episode 109 | Rich & Famous

Скачать через торрент [VIDEO] Затащи меня в Ад Drag Me to Hell бесплатно русская версия torrent активатор

Статистика раздачи
Размер:  1.95 GB   |    Зарегистрирован:  1 год 5 месяцев   |    .torrent скачан:  12 раз   |   
Раздают:  1  
   
загрузка...
 
Автор Сообщение

Galfimbul

avatar Galfimbul


Затащи меня в Ад / Drag Me to Hell
«Christine Brown has a good job, a great boyfriend, and a bright future. But in three days, she's going to hell»
Премьера: 2009
Оригинальное название: Drag Me to Hell
Страна: США
Жанр: ужасы, комедия
Возраст: 16+

Режиссер: Сэм Рэйми / Sam Raimi

В ролях: Элисон Ломан, Джастин Лонг, Лорна Рэйвер, Дэвид Пэймер, Дайлип Рао, Реджи Ли, Джессика Лукас, Адриана Барраса, Фернанда Ромеро, Бояна Новакович, Бонни Ааронс, Джоанн Бэрон, Том Кэри, Алекс Видов, Тони Уинн

Описание: Кристина Браун живет в Лос-Анжелесе, работает в банке, оформляя клиентам ссуды, у нее обаятельный и любящий бойфренд, профессор Клэй Далтон. Все складывается хорошо и, казалось, что жизнь удалась…, но только до тех пор, пока в банке не появляется некая миссис Гануш с просьбой об отсрочке ипотечного кредита.

Кристина и рада бы пойти навстречу старой женщине, но перед ней маячит возможность занять более высокую должность в банке, и она отказывает старухе. В ответ, та накладывает на нее проклятие, и жизнь девушки превращается в непрерывный кошмар. Теперь помочь Кристине может только провидица Шаун Сэн Дена.

Продолжительность: 01:38:57
Перевод: Дублированный
Оригинальная дорожка: есть

Автор рипа:

Качество видео: BDRip Исходник: Blu-Ray (1080p) Формат: mp4
Видео кодек: MPEG-4 AVC Аудио кодек: AAC
Видео: 1280x536 (2.40:1) at 23.976 fps, AVC at 2 555 kbps avg, 0.155 bit/pixel
Аудио №1 Rus: 48.0 KHz, AAC, 2 ch, 128.0 Kbps
Аудио №2 Eng: 48.0 KHz, AAC, 2 ch, 128.0 Kbps
Субтитры: русские (полные), английские (полные)
Навигация по главам: есть
Размер: 1.95 GiB
avs [info]: 1280x536p 1:1 @ 24000/1001 fps (cfr)
x264 [info]: using SAR=1/1
x264 [info]: using cpu capabilities: MMX2 SSE2Fast SSSE3 Cache64
x264 [info]: profile High, level 4.1
x264 [info]: frame I:1343 Avg QP:16.52 size:101191
x264 [info]: frame P:28575 Avg QP:19.84 size: 28473
x264 [info]: frame B:112426 Avg QP:21.67 size: 8418
x264 [info]: consecutive B-frames: 2.1% 1.6% 4.9% 13.1% 10.9% 61.1% 6.5%
x264 [info]: mb I I16..4: 8.0% 74.9% 17.1%
x264 [info]: mb P I16..4: 1.1% 10.8% 1.0% P16..4: 41.2% 22.9% 12.8% 0.0% 0.0% skip:10.2%
x264 [info]: mb B I16..4: 0.1% 1.0% 0.1% B16..8: 46.3% 7.7% 1.5% direct: 4.6% skip:38.8% L0:46.1% L1:48.2% BI: 5.7%
x264 [info]: 8x8 transform intra:82.5% inter:69.6%
x264 [info]: coded y,uvDC,uvAC intra: 84.4% 85.7% 58.9% inter: 22.8% 27.6% 3.1%
x264 [info]: i16 v,h,dc,p: 26% 12% 12% 50%
x264 [info]: i8 v,h,dc,ddl,ddr,vr,hd,vl,hu: 18% 12% 23% 6% 8% 9% 8% 8% 8%
x264 [info]: i4 v,h,dc,ddl,ddr,vr,hd,vl,hu: 22% 13% 13% 7% 11% 11% 9% 8% 7%
x264 [info]: i8c dc,h,v,p: 53% 18% 20% 9%
x264 [info]: Weighted P-Frames: Y:5.1% UV:2.4%
x264 [info]: ref P L0: 44.5% 11.0% 19.5% 6.8% 6.1% 3.8% 3.8% 1.9% 2.2% 0.3% 0.0%
x264 [info]: ref B L0: 74.0% 12.2% 5.8% 2.9% 2.1% 1.7% 0.9% 0.3%
x264 [info]: ref B L1: 93.1% 6.9%
x264 [info]: kb/s:2554.76
encoded 142344 frames, 2.35 fps, 2554.76 kb/s
GeneralFormat : MPEG-4Format profile : Base MediaCodec ID : isom (isom)File size : 1.95 GiBDuration : 1 h 38 minOverall bit rate mode : VariableOverall bit rate : 2 822 kb/sMovie name : ZatashhЗатащи меня в Ад | KinoGadgetPerformer : Сэм РэймиDirector : Сэм РэймиActor : Элисон Ломан / Джастин Лонг / Лорна Рэйвер / Дэвид Пэймер / Дайлип Рао / Реджи Ли / Джессика Лукас / Адриана Барраса / Фернанда Ромеро / Бояна Новакович / Бонни Ааронс / Джоанн Бэрон / Том Кэри / Алекс Видов / Тони УиннScreenplay by : Сэм Рэйми / Айван РэймиProducer : Грант Кертис / Роб Таперт / Джозеф ДрэйкGenre : Comedy, Horror, ThrillerContentType : Short FilmRecorded date : 2009Encoded date : UTC 2017-01-19 09:47:28Tagged date : UTC 2017-01-19 09:54:05Cover : YesContentRating : mpaa|PG-13|300|LongDescription : Кристина Браун живет в Лос-Анжелесе, работает в банке, оформляя клиентам ссуды, у нее обаятельный и любящий бойфренд, профессор Клэй Далтон. Все складывается хорошо и, казалось, что жизнь удалась…, но только до тех пор, пока в банке не появляется некая миссис Гануш с просьбой об отсрочке ипотечного кредита. / / Кристина и рада бы пойти навстречу старой женщине, но перед ней маячит возможность занять более высокую должность в банке, и она отказывает старухе. В ответ, та накладывает на нее проклятие, и жизнь девушки превращается в непрерывный кошмар. Теперь помочь Кристине может только провидица Шаун Сэн Дена.HDVideo : Yes

VideoID : 1Format : AVCFormat/Info : Advanced Video CodecFormat profile : [email protected] settings, CABAC : YesFormat settings, ReFrames : 9 framesCodec ID : avc1Codec ID/Info : Advanced Video CodingDuration : 1 h 38 minBit rate : 2 555 kb/sMaximum bit rate : 15.8 Mb/sWidth : 1 280 pixelsHeight : 536 pixelsDisplay aspect ratio : 2.40:1Frame rate mode : ConstantFrame rate : 23.976 (24000/1001) FPSColor space : YUVChroma subsampling : 4:2:0Bit depth : 8 bitsScan type : ProgressiveBits/(Pixel*Frame) : 0.155Stream size : 1.77 GiB (91%)Writing library : x264 core 148 r2638 7599210Encoding settings : cabac=1 / ref=9 / deblock=1:-1:-1 / analyse=0x3:0x113 / me=umh / subme=7 / psy=1 / psy_rd=1.00:0.15 / mixed_ref=1 / me_range=32 / chroma_me=1 / trellis=2 / 8x8dct=1 / cqm=0 / deadzone=21,11 / fast_pskip=1 / chroma_qp_offset=-3 / threads=3 / lookahead_threads=1 / sliced_threads=0 / nr=0 / decimate=1 / interlaced=0 / bluray_compat=0 / constrained_intra=0 / bframes=6 / b_pyramid=2 / b_adapt=2 / b_bias=0 / direct=1 / weightb=1 / open_gop=0 / weightp=2 / keyint=240 / keyint_min=23 / scenecut=40 / intra_refresh=0 / rc_lookahead=40 / rc=crf / mbtree=1 / crf=19.5 / qcomp=0.60 / qpmin=0 / qpmax=69 / qpstep=4 / vbv_maxrate=62500 / vbv_bufsize=78125 / crf_max=0.0 / nal_hrd=none / filler=0 / ip_ratio=1.40 / aq=1:1.00Encoded date : UTC 2017-01-19 04:20:36Tagged date : UTC 2017-01-19 09:48:18

Audio #1ID : 2Format : AACFormat/Info : Advanced Audio CodecFormat profile : LCCodec ID : 40Duration : 1 h 38 minBit rate mode : VariableBit rate : 128 kb/sMaximum bit rate : 135 kb/sChannel(s) : 2 channelsChannel positions : Front: L RSampling rate : 48.0 kHzFrame rate : 46.875 FPS (1024 spf)Compression mode : LossyStream size : 90.6 MiB (5%)Title : DubLanguage : RussianEncoded date : UTC 2017-01-19 07:49:05Tagged date : UTC 2017-01-19 09:48:18

Audio #2ID : 3Format : AACFormat/Info : Advanced Audio CodecFormat profile : LCCodec ID : 40Duration : 1 h 38 minBit rate mode : VariableBit rate : 128 kb/sMaximum bit rate : 135 kb/sChannel(s) : 2 channelsChannel positions : Front: L RSampling rate : 48.0 kHzFrame rate : 46.875 FPS (1024 spf)Compression mode : LossyStream size : 90.6 MiB (5%)Language : EnglishEncoded date : UTC 2017-01-19 07:31:15Tagged date : UTC 2017-01-19 09:48:18

Text #1ID : 4Format : Timed TextCodec ID : tx3gDuration : 1 h 34 minBit rate mode : VariableBit rate : 85 b/sStream size : 58.4 KiB (0%)Title : FullLanguage : RussianForced : NoEncoded date : UTC 2017-01-19 09:48:18Tagged date : UTC 2017-01-19 09:48:18

Text #2ID : 5Format : Timed TextCodec ID : tx3gDuration : 1 h 33 minBit rate mode : VariableBit rate : 54 b/sStream size : 37.0 KiB (0%)Title : FullLanguage : EnglishForced : NoEncoded date : UTC 2017-01-19 09:48:18Tagged date : UTC 2017-01-19 09:48:18

Menu00:00:00.000 : 00:00:00.00000:03:21.743 : 00:03:21.74300:05:39.548 : 00:05:39.54800:07:55.725 : 00:07:55.72500:09:55.470 : 00:09:55.47000:10:41.599 : 00:10:41.59900:14:15.271 : 00:14:15.27100:16:05.548 : 00:16:05.54800:16:39.874 : 00:16:39.87400:18:20.766 : 00:18:20.76600:19:33.714 : 00:19:33.71400:20:51.709 : 00:20:51.70900:22:38.983 : 00:22:38.98300:24:25.422 : 00:24:25.42200:26:34.051 : 00:26:34.05100:30:15.063 : 00:30:15.06300:33:53.990 : 00:33:53.99000:35:50.940 : 00:35:50.94000:38:13.958 : 00:38:13.95800:40:07.280 : 00:40:07.28000:40:43.775 : 00:40:43.77500:42:53.446 : 00:42:53.44600:44:35.590 : 00:44:35.59000:45:54.835 : 00:45:54.83500:49:40.769 : 00:49:40.76900:51:27.084 : 00:51:27.08400:56:19.001 : 00:56:19.00100:59:05.250 : 00:59:05.25001:00:13.527 : 01:00:13.52701:01:54.169 : 01:01:54.16901:02:29.287 : 01:02:29.28701:04:51.179 : 01:04:51.17901:06:56.387 : 01:06:56.38701:10:48.244 : 01:10:48.24401:13:27.695 : 01:13:27.69501:18:06.640 : 01:18:06.64001:19:50.744 : 01:19:50.74401:21:32.012 : 01:21:32.01201:25:40.010 : 01:25:40.01001:26:37.150 : 01:26:37.15001:29:52.178 : 01:29:52.17801:32:39.888 : 01:32:39.88801:34:05.098 : 01:34:05.098
<a href="tracker.php?rid=39840292" class="postLink"> </a>

Трекер:  [ 22-Янв-2017 19:00 ]

  

Скачать .torrent

Размер .torrent файла 20 KB


Размер: 1.95 GB
Хэш (hash) релиза: c3841d26bc6e4a606023f20b57ec1d8038fb0503

Еще никто не оставлял запись к записи скачать торрент [VIDEO] Затащи меня в Ад Drag Me to Hell . Будь первым!

!Обратная связь