Birds of Prey | C.O.P.S. | Lawn Road Color Precision 1.0.1 for Final Cut Pro X

Скачать через торрент [VIDEO] Бен-Гур Ben-Hur бесплатно русская версия torrent активатор

Статистика раздачи
Размер:  2.62 GB   |    Зарегистрирован:  1 год 6 месяцев   |    .torrent скачан:  67 раз   |   
Раздают:  1  
   
загрузка...
 
Автор Сообщение

Galfimbul

avatar Galfimbul


Бен-Гур / Ben-Hur
«Брат против брата. Раб против империи»
Год выпуска: 2016
Оригинальное название: Ben-Hur
Страна: США
Жанр: боевик, драма, приключения
Возраст: 16+

Режиссер: Тимур Бекмамбетов

В ролях: Джек Хьюстон, Тоби Кеббелл, Родриго Санторо, Назанин Бониади, Айелет Зурер, Йохан Филип Асбек, София Блэк-Д`Элиа, Морган Фримен, Марван Кензари, Мойзес Ариас

Описание Бен-Гур (2016): Сюжет фильма отправляет нас в 26 год нашей эры во времена Иисуса Христа. Иудей Бен Гур потомок иудейского знатного рода был предан сводным братом римлянином Мессала. Долгие годы Бен Гур находился в рабстве у римлян. Ему предстояло пережить трудные годы на римских галерах, но у него появился шанс вернуться домой и отомстить брату за предательство...

Продолжительность: 02:04:42
Перевод: Дублированный [Лицензия]
Оригинальная дорожка: есть

Автор рипа:

Качество видео: BDRip Исходник: Blu-Ray (1080p) Формат: mp4
Видео кодек: MPEG-4 AVC Аудио кодек: AAC
Видео: 1280x534 (2.40:1) at 23.976 fps, AVC at 2 772 kbps avg, 0.169 bit/pixel
Аудио №1 Rus: 48.0 KHz, AAC, 2 ch, 128.0 Kbps
Аудио №2 Eng: 48.0 KHz, AAC, 2 ch, 128.0 Kbps
Субтитры: русские (полные), английские (полные)
Навигация по главам: есть
Размер: 2.61 GiB
avs [info]: 1280x534p 1:1 @ 24000/1001 fps (cfr)
x264 [info]: using SAR=1/1
x264 [info]: using cpu capabilities: MMX2 SSE2Fast SSSE3 Cache64
x264 [info]: profile High, level 4.1
x264 [info]: frame I:1527 Avg QP:15.48 size:103824
x264 [info]: frame P:44504 Avg QP:19.23 size: 26681
x264 [info]: frame B:131375 Avg QP:21.18 size: 9271
x264 [info]: consecutive B-frames: 3.7% 4.5% 12.6% 25.4% 20.2% 25.4% 8.2%
x264 [info]: mb I I16..4: 7.1% 72.9% 20.1%
x264 [info]: mb P I16..4: 2.6% 18.6% 2.1% P16..4: 38.4% 18.4% 11.1% 0.0% 0.0% skip: 8.8%
x264 [info]: mb B I16..4: 0.2% 2.1% 0.4% B16..8: 40.6% 8.4% 1.9% direct: 5.3% skip:41.1% L0:42.9% L1:47.2% BI:10.0%
x264 [info]: 8x8 transform intra:78.6% inter:73.0%
x264 [info]: coded y,uvDC,uvAC intra: 78.0% 80.1% 45.1% inter: 22.0% 23.1% 1.8%
x264 [info]: i16 v,h,dc,p: 23% 17% 8% 52%
x264 [info]: i8 v,h,dc,ddl,ddr,vr,hd,vl,hu: 18% 17% 16% 6% 8% 9% 9% 8% 9%
x264 [info]: i4 v,h,dc,ddl,ddr,vr,hd,vl,hu: 21% 15% 12% 7% 11% 10% 10% 7% 7%
x264 [info]: i8c dc,h,v,p: 52% 21% 19% 8%
x264 [info]: Weighted P-Frames: Y:5.4% UV:2.9%
x264 [info]: ref P L0: 51.0% 12.1% 14.8% 6.3% 4.5% 3.7% 3.1% 2.1% 1.9% 0.5% 0.0%
x264 [info]: ref B L0: 81.1% 8.5% 4.2% 2.1% 1.6% 1.3% 0.8% 0.3%
x264 [info]: ref B L1: 94.7% 5.3%
x264 [info]: kb/s:2772.07
encoded 177406 frames, 2.39 fps, 2772.07 kb/s
GeneralFormat : MPEG-4Format profile : Base MediaCodec ID : isom (isom)File size : 2.62 GiBDuration : 2 h 4 minOverall bit rate mode : VariableOverall bit rate : 3 006 kb/sMovie name : Бен-Гур | KinoGadgetPerformer : Тимур БекмамбетовDirector : Тимур БекмамбетовActor : Джек Хьюстон / Тоби Кеббелл / Родриго Санторо / Назанин Бониади / Айелет Зурер / Йохан Филип Асбек / София Блэк-Д`Элиа / Морган Фримен / Марван Кензари / Мойзес АриасScreenplay by : Кит Р. Кларк / Джон Ридли / Лью УоллесProducer : Марк Барнетт / Шон Дэниэл / Дункан ХендерсонGenre : Action, Adventure, DramaContentType : Short FilmRecorded date : 2016Encoded date : UTC 2017-01-17 07:10:45Tagged date : UTC 2017-01-17 07:41:41Cover : YesContentRating : mpaa|PG-13|300|LongDescription : История Бен-Гура, потомка знатного иудейского рода, который был предан своим лучшим другом-римлянином. Проведя много лет в рабстве на римских галерах, Бен-Гур в итоге получает возможность вернуться на родину и отомстить обидчику.HDVideo : Yes

VideoID : 1Format : AVCFormat/Info : Advanced Video CodecFormat profile : [email protected] settings, CABAC : YesFormat settings, ReFrames : 9 framesCodec ID : avc1Codec ID/Info : Advanced Video CodingDuration : 2 h 3 minBit rate : 2 772 kb/sMaximum bit rate : 16.4 Mb/sWidth : 1 280 pixelsHeight : 534 pixelsDisplay aspect ratio : 2.40:1Frame rate mode : ConstantFrame rate : 23.976 (24000/1001) FPSColor space : YUVChroma subsampling : 4:2:0Bit depth : 8 bitsScan type : ProgressiveBits/(Pixel*Frame) : 0.169Stream size : 2.39 GiB (91%)Writing library : x264 core 148 r2638 7599210Encoding settings : cabac=1 / ref=9 / deblock=1:-2:-1 / analyse=0x3:0x113 / me=umh / subme=7 / psy=1 / psy_rd=1.00:0.15 / mixed_ref=1 / me_range=32 / chroma_me=1 / trellis=2 / 8x8dct=1 / cqm=0 / deadzone=21,11 / fast_pskip=1 / chroma_qp_offset=-3 / threads=3 / lookahead_threads=1 / sliced_threads=0 / nr=0 / decimate=1 / interlaced=0 / bluray_compat=0 / constrained_intra=0 / bframes=6 / b_pyramid=2 / b_adapt=2 / b_bias=0 / direct=1 / weightb=1 / open_gop=0 / weightp=2 / keyint=240 / keyint_min=23 / scenecut=40 / intra_refresh=0 / rc_lookahead=40 / rc=crf / mbtree=1 / crf=19.0 / qcomp=0.60 / qpmin=0 / qpmax=69 / qpstep=4 / vbv_maxrate=62500 / vbv_bufsize=78125 / crf_max=0.0 / nal_hrd=none / filler=0 / ip_ratio=1.40 / aq=1:1.00Encoded date : UTC 2017-01-17 04:59:51Tagged date : UTC 2017-01-17 07:11:33

Audio #1ID : 2Format : AACFormat/Info : Advanced Audio CodecFormat profile : LCCodec ID : 40Duration : 2 h 3 minBit rate mode : VariableBit rate : 128 kb/sMaximum bit rate : 135 kb/sChannel(s) : 2 channelsChannel positions : Front: L RSampling rate : 48.0 kHzFrame rate : 46.875 FPS (1024 spf)Compression mode : LossyStream size : 113 MiB (4%)Title : Dub [license]Language : RussianEncoded date : UTC 2017-01-17 05:18:22Tagged date : UTC 2017-01-17 07:11:33

Audio #2ID : 3Format : AACFormat/Info : Advanced Audio CodecFormat profile : LCCodec ID : 40Duration : 2 h 3 minBit rate mode : VariableBit rate : 128 kb/sMaximum bit rate : 135 kb/sChannel(s) : 2 channelsChannel positions : Front: L RSampling rate : 48.0 kHzFrame rate : 46.875 FPS (1024 spf)Compression mode : LossyStream size : 113 MiB (4%)Language : EnglishEncoded date : UTC 2017-01-17 05:09:05Tagged date : UTC 2017-01-17 07:11:33

Text #1ID : 4Format : Timed TextCodec ID : tx3gDuration : 2 h 4 minBit rate mode : VariableBit rate : 59 b/sStream size : 54.1 KiB (0%)Title : FullLanguage : RussianForced : NoEncoded date : UTC 2017-01-17 07:11:33Tagged date : UTC 2017-01-17 07:11:33

Text #2ID : 5Format : Timed TextCodec ID : tx3gDuration : 1 h 57 minBit rate mode : VariableBit rate : 51 b/sStream size : 43.9 KiB (0%)Title : FullLanguage : EnglishForced : NoEncoded date : UTC 2017-01-17 07:11:33Tagged date : UTC 2017-01-17 07:11:33

Menu00:00:00.000 : Chapter 0100:07:03.881 : Chapter 0200:15:42.942 : Chapter 0300:19:47.894 : Chapter 0400:27:25.853 : Chapter 0500:33:09.362 : Chapter 0600:41:07.215 : Chapter 0700:48:20.063 : Chapter 0800:55:21.652 : Chapter 0901:05:41.228 : Chapter 1001:13:15.890 : Chapter 1101:22:26.899 : Chapter 1201:31:30.193 : Chapter 1301:39:55.655 : Chapter 1401:46:30.801 : Chapter 1501:54:54.637 : Chapter 16
<a href="tracker.php?rid=39840292" class="postLink"> </a>

Трекер:  [ 17-Янв-2017 10:00 ]

  

Скачать .torrent

Размер .torrent файла 13 KB


Размер: 2.62 GB
Хэш (hash) релиза: f919b40b10d71622bafdc2e395782769ec45dfb8

Еще никто не оставлял запись к записи скачать торрент [VIDEO] Бен-Гур Ben-Hur . Будь первым!

!Обратная связь