Hara OnOff | Berpisah Itu Mudah - Rizky Febian & Mikha Tambayong (official Music Video).mp3 | Australian Triathlete

Скачать через торрент [VIDEO] Поворот не туда 3 Wrong Turn 3: Left for Dead бесплатно русская версия torrent активатор

Статистика раздачи
Размер:  1.94 GB   |    Зарегистрирован:  1 год 6 месяцев   |    .torrent скачан:  40 раз   |   
Раздают:  1  
   
загрузка...
 
Автор Сообщение

Galfimbul

avatar Galfimbul


Поворот не туда 3 / Wrong Turn 3: Left for Dead
«Вы не увидите то, что вас убьет»
Премьера: 2009
Оригинальное название: Wrong Turn 3: Left for Dead
Страна: США, Германия
Жанр: ужасы
Возраст: 18+

Режиссер: Деклан О’Брайэн

В ролях: Том Фредерик, Джанет Монтгомери, Джил Колирин, Кристиан Райан Контрерарс, Джэйк Каррен, Том МакКэй, Чуки Венис, Тэмер Хассан, Джек Гордон, Луиз Клифф, Чарли Спид, Борислав Петров, Борислав Илиев, Майк Страуб, Билл Муди, Эмма Клиффорд, Мак МакДональд, Тодд Дженсен, Владо Мажанаов

Описание: Группа людей оказывается загнанной в ловушку, в лесах Западной Вирджинии, где они вынуждены бороться за свои жизни против группы порочных, и ужасно уродливых каннибалов.

Продолжительность: 01:32:02
Перевод: Профессиональный многоголосый [Лицензия]
Оригинальная дорожка: есть

Автор рипа:

Качество видео: BDRip Исходник: Blu-Ray Remux (1080p) Формат: mp4
Видео кодек: MPEG-4 AVC Аудио кодек: AAC
Видео: 1280x720 (16:9) at 23.976 fps, AVC at 2 749 kbps avg, 0.124 bit/pixel
Аудио №1 Rus: 48.0 KHz, AAC, 2 ch, 128.0 Kbps
Аудио №2 Eng: 48.0 KHz, AAC, 2 ch, 128.0 Kbps
Субтитры: русские (полные), английские (полные)
Навигация по главам: нет
Размер: 1.94 GiB
avs [info]: 1280x720p 1:1 @ 24000/1001 fps (cfr)
x264 [info]: using SAR=1/1
x264 [info]: using cpu capabilities: MMX2 SSE2Fast SSSE3 Cache64
x264 [info]: profile High, level 4.1
x264 [info]: frame I:889 Avg QP:19.45 size: 94844
x264 [info]: frame P:25394 Avg QP:22.68 size: 26302
x264 [info]: frame B:106121 Avg QP:23.78 size: 10791
x264 [info]: consecutive B-frames: 1.2% 1.4% 2.7% 17.8% 9.8% 52.7% 5.0% 6.6% 1.0% 0.9% 0.6%
x264 [info]: mb I I16..4: 3.7% 87.8% 8.6%
x264 [info]: mb P I16..4: 1.6% 10.5% 0.9% P16..4: 50.7% 17.0% 9.9% 0.0% 0.0% skip: 9.5%
x264 [info]: mb B I16..4: 0.1% 0.9% 0.1% B16..8: 49.4% 6.3% 1.0% direct: 5.7% skip:36.5% L0:46.7% L1:50.2% BI: 3.1%
x264 [info]: 8x8 transform intra:82.5% inter:74.5%
x264 [info]: coded y,uvDC,uvAC intra: 77.1% 81.1% 39.1% inter: 22.0% 34.0% 0.8%
x264 [info]: i16 v,h,dc,p: 26% 22% 6% 45%
x264 [info]: i8 v,h,dc,ddl,ddr,vr,hd,vl,hu: 14% 12% 25% 6% 9% 9% 9% 8% 8%
x264 [info]: i4 v,h,dc,ddl,ddr,vr,hd,vl,hu: 19% 17% 14% 7% 11% 10% 10% 7% 6%
x264 [info]: i8c dc,h,v,p: 55% 19% 19% 7%
x264 [info]: Weighted P-Frames: Y:4.5% UV:2.6%
x264 [info]: ref P L0: 45.6% 11.6% 17.8% 6.9% 5.5% 4.2% 3.7% 2.2% 2.2% 0.2% 0.0%
x264 [info]: ref B L0: 74.0% 11.6% 6.1% 2.9% 2.2% 1.8% 1.0% 0.3%
x264 [info]: ref B L1: 92.6% 7.4%
x264 [info]: kb/s:2748.60
encoded 132404 frames, 1.76 fps, 2748.60 kb/s
GeneralComplete name : D:\Torrents\Completed\Povorot_ne_tuda_3_2009_KinoGadget.mp4Format : MPEG-4Format profile : Base MediaCodec ID : isom (isom)File size : 1.94 GiBDuration : 1 h 32 minOverall bit rate mode : VariableOverall bit rate : 3 016 kb/sMovie name : Поворот не туда 3 | KinoGadgetPerformer : Деклан О’БрайэнDirector : Деклан О’БрайэнActor : Том Фредерик / Джанет Монтгомери / Джил Колирин / Кристиан Райан Контрерарс / Джэйк Каррен / Том МакКэй / Чуки Венис / Тэмер Хассан / Джек Гордон / Луиз Клифф / Чарли Спид / Борислав ПетровScreenplay by : Коннор Джеймс Делани / Алан Б. МакЭлройProducer : Джеффри Бич / Джон Каппилла / Эрик ФейгGenre : HorrorContentType : Short FilmRecorded date : 2009Encoded date : UTC 2017-01-14 12:28:39Tagged date : UTC 2017-01-14 13:06:35Cover : YesContentRating : mpaa|R|400|LongDescription : Группа людей оказывается загнанной в ловушку, в лесах Западной Вирджинии, где они вынуждены бороться за свои жизни против группы порочных, и ужасно уродливых каннибалов.HDVideo : Yes

VideoID : 1Format : AVCFormat/Info : Advanced Video CodecFormat profile : [email protected] settings, CABAC : YesFormat settings, ReFrames : 9 framesCodec ID : avc1Codec ID/Info : Advanced Video CodingDuration : 1 h 32 minBit rate : 2 749 kb/sMaximum bit rate : 25.5 Mb/sWidth : 1 280 pixelsHeight : 720 pixelsDisplay aspect ratio : 16:9Frame rate mode : ConstantFrame rate : 23.976 (24000/1001) FPSColor space : YUVChroma subsampling : 4:2:0Bit depth : 8 bitsScan type : ProgressiveBits/(Pixel*Frame) : 0.124Stream size : 1.77 GiB (91%)Writing library : x264 core 148 r2638 7599210Encoding settings : cabac=1 / ref=9 / deblock=1:-2:-1 / analyse=0x3:0x113 / me=umh / subme=7 / psy=1 / psy_rd=1.00:0.15 / mixed_ref=1 / me_range=32 / chroma_me=1 / trellis=2 / 8x8dct=1 / cqm=0 / deadzone=21,11 / fast_pskip=1 / chroma_qp_offset=-3 / threads=3 / lookahead_threads=1 / sliced_threads=0 / nr=0 / decimate=1 / interlaced=0 / bluray_compat=0 / constrained_intra=0 / bframes=10 / b_pyramid=2 / b_adapt=2 / b_bias=0 / direct=1 / weightb=1 / open_gop=0 / weightp=2 / keyint=240 / keyint_min=23 / scenecut=40 / intra_refresh=0 / rc_lookahead=40 / rc=crf / mbtree=1 / crf=22.0 / qcomp=0.60 / qpmin=0 / qpmax=69 / qpstep=4 / vbv_maxrate=62500 / vbv_bufsize=78125 / crf_max=0.0 / nal_hrd=none / filler=0 / ip_ratio=1.40 / aq=1:1.00Encoded date : UTC 2017-01-14 07:59:58Tagged date : UTC 2017-01-14 12:29:42

Audio #1ID : 2Format : AACFormat/Info : Advanced Audio CodecFormat profile : LCCodec ID : 40Duration : 1 h 32 minBit rate mode : VariableBit rate : 128 kb/sMaximum bit rate : 135 kb/sChannel(s) : 2 channelsChannel positions : Front: L RSampling rate : 48.0 kHzFrame rate : 46.875 FPS (1024 spf)Compression mode : LossyStream size : 84.3 MiB (4%)Title : P [license]Language : RussianEncoded date : UTC 2017-01-14 08:47:57Tagged date : UTC 2017-01-14 12:29:42

Audio #2ID : 3Format : AACFormat/Info : Advanced Audio CodecFormat profile : LCCodec ID : 40Duration : 1 h 32 minBit rate mode : VariableBit rate : 128 kb/sMaximum bit rate : 135 kb/sChannel(s) : 2 channelsChannel positions : Front: L RSampling rate : 48.0 kHzFrame rate : 46.875 FPS (1024 spf)Compression mode : LossyStream size : 84.3 MiB (4%)Language : EnglishEncoded date : UTC 2017-01-14 08:57:37Tagged date : UTC 2017-01-14 12:29:42

Text #1ID : 4Format : Timed TextCodec ID : tx3gDuration : 1 h 29 minBit rate mode : VariableBit rate : 73 b/sStream size : 47.4 KiB (0%)Title : FullLanguage : RussianForced : NoEncoded date : UTC 2017-01-14 12:29:41Tagged date : UTC 2017-01-14 12:29:42

Text #2ID : 5Format : Timed TextCodec ID : tx3gDuration : 1 h 29 minBit rate mode : VariableBit rate : 63 b/sStream size : 41.3 KiB (0%)Title : FullLanguage : EnglishForced : NoEncoded date : UTC 2017-01-14 12:29:42Tagged date : UTC 2017-01-14 12:29:42
<a href="tracker.php?rid=39840292" class="postLink"> </a>

Трекер:  [ 16-Янв-2017 10:30 ]

  

Скачать .torrent

Размер .torrent файла 20 KB


Размер: 1.94 GB
Хэш (hash) релиза: 76d0421d026633e1f007a9032f9295bc409f2129

Еще никто не оставлял запись к записи скачать торрент [VIDEO] Поворот не туда 3 Wrong Turn 3: Left for Dead . Будь первым!

!Обратная связь