The Wire | The Boxtrolls (2014) RATING 6.8 / 10 QUALITY POP # 102 | Fifty Shades Darker 2017 UNRATED FRENCH HDRip XviD-EXTREME

Скачать через торрент [MULT] Раз ковбой, два ковбой... бесплатно русская версия torrent активатор

Статистика раздачи
Размер:  90 MB   |    Зарегистрирован:  1 год 6 месяцев   |    .torrent скачан:  30 раз   |   
Раздают:  1  
   
загрузка...
 
Автор Сообщение

Galfimbul

avatar Galfimbul


<span class="post-font-serif1">Раз ковбой, два ковбой...</span>

<span class="post-font-serif1">Год выпуска: 1981
Страна: СССР
Жанр: мультфильм, короткометражка
Продолжительность: 00:10:18
Перевод: не требуется
Cубтитры: нет</span>
<span class="post-font-serif1">Режиссер: Анатолий Резников</span>
<span class="post-font-serif1">Роли озвучивали: Андрей Миронов</span>
<span class="post-font-serif1">Описание: Пародия на американский вестерн.</span>
<span class="post-font-serif1">Релиз группы </span>
<span class="post-font-serif1">Качество: DVDRip / <a href="viewtopic.php?t=3460808" class="postLink">рип с DVD5 (Крупный план)</a>
Формат: MP4
Видео кодек: H.264
Аудио кодек: AAC
Видео: 478x360 AR:4/3 1080 kbps 25 fps
Аудио : 1ch 48 kHz 128 kbps</span>
avs [info]: 478x360p 1:1 @ 25/1 fps (cfr)
x264 [info]: using SAR=1/1
x264 [info]: using cpu capabilities: MMX2 SSE2Fast SSSE3 SSE4.2 AVX FMA3 AVX2 LZCNT BMI2
x264 [info]: profile High, level 4.1

x264 [info]: frame I:115 Avg QP:19.96 size: 35981
x264 [info]: frame P:3495 Avg QP:23.58 size: 13465
x264 [info]: frame B:11840 Avg QP:27.97 size: 2726
x264 [info]: consecutive B-frames: 2.6% 2.3% 7.6% 28.8% 18.9% 25.9% 7.2% 3.5% 2.4% 1.0%
x264 [info]: mb I I16..4: 2.0% 59.7% 38.2%
x264 [info]: mb P I16..4: 0.5% 4.0% 2.8% P16..4: 36.0% 34.7% 18.4% 2.7% 0.3% skip: 0.5%
x264 [info]: mb B I16..4: 0.1% 0.4% 0.4% B16..8: 35.2% 20.4% 3.6% direct: 7.8% skip:32.1% L0:42.6% L1:32.5% BI:24.9%
x264 [info]: 8x8 transform intra:53.1% inter:64.0%
x264 [info]: direct mvs spatial:97.8% temporal:2.2%
x264 [info]: coded y,uvDC,uvAC intra: 84.0% 82.3% 45.9% inter: 34.3% 28.7% 4.3%
x264 [info]: i16 v,h,dc,p: 24% 25% 5% 45%
x264 [info]: i8 v,h,dc,ddl,ddr,vr,hd,vl,hu: 12% 14% 10% 9% 10% 8% 11% 10% 16%
x264 [info]: i4 v,h,dc,ddl,ddr,vr,hd,vl,hu: 12% 15% 6% 8% 12% 10% 13% 9% 15%
x264 [info]: i8c dc,h,v,p: 24% 36% 18% 22%
x264 [info]: Weighted P-Frames: Y:60.1% UV:43.3%
x264 [info]: ref P L0: 35.9% 13.9% 11.7% 8.9% 6.4% 6.3% 4.8% 3.7% 3.2% 3.3% 1.8% 0.0%
x264 [info]: ref B L0: 71.7% 10.8% 5.1% 3.5% 2.7% 2.5% 1.9% 1.2% 0.6%
x264 [info]: ref B L1: 95.9% 4.1%
x264 [info]: kb/s:1080.63

encoded 15450 frames, 23.85 fps, 1080.64 kb/s

neralComplete name : D:\Torrents\Raz covboi, dva covboi...1981.DVDRip.x264.640x.rip by Frost O.S.mp4Format : MPEG-4Format profile : Base MediaCodec ID : isom (isom/avc1)File size : 89.8 MiBDuration : 10 min 18 sOverall bit rate : 1 218 kb/sMovie name : Raz covboi, dva covboi 1981 DVDRip x264 640x rip by Frost O SGenre : AnimationContentType : Short FilmEncoded date : UTC 2017-01-02 13:41:14Tagged date : UTC 2017-01-02 13:41:15Writing application : MkvToMp4 version: 0.224 (x64)Cover : YesComment : rip by Frost O.SLongDescription : Пародия на американский вестерн.

VideoID : 1Format : AVCFormat/Info : Advanced Video CodecFormat profile : [email protected] settings, CABAC : YesFormat settings, ReFrames : 10 framesCodec ID : avc1Codec ID/Info : Advanced Video CodingDuration : 10 min 18 sBit rate : 1 080 kb/sMaximum bit rate : 2 768 kb/sWidth : 478 pixelsHeight : 360 pixelsDisplay aspect ratio : 4:3Frame rate mode : ConstantFrame rate : 25.000 FPSColor space : YUVChroma subsampling : 4:2:0Bit depth : 8 bitsScan type : ProgressiveBits/(Pixel*Frame) : 0.251Stream size : 79.6 MiB (89%)Writing library : x264 core 148 r2705 3f5ed56Encoding settings : cabac=1 / ref=10 / deblock=1:-2:-2 / analyse=0x3:0x133 / me=umh / subme=11 / psy=1 / psy_rd=0.85:0.00 / mixed_ref=1 / me_range=48 / chroma_me=1 / trellis=2 / 8x8dct=1 / cqm=0 / deadzone=21,11 / fast_pskip=0 / chroma_qp_offset=-2 / threads=6 / lookahead_threads=1 / sliced_threads=0 / nr=0 / decimate=0 / interlaced=0 / bluray_compat=0 / constrained_intra=0 / bframes=9 / b_pyramid=2 / b_adapt=2 / b_bias=0 / direct=3 / weightb=1 / open_gop=0 / weightp=2 / keyint=250 / keyint_min=25 / scenecut=40 / intra_refresh=0 / rc_lookahead=60 / rc=2pass / mbtree=1 / bitrate=1080 / ratetol=1.0 / qcomp=0.60 / qpmin=0 / qpmax=69 / qpstep=4 / cplxblur=20.0 / qblur=0.5 / ip_ratio=1.40 / aq=1:0.90Language : EnglishEncoded date : UTC 2017-01-02 13:41:14Tagged date : UTC 2017-01-02 13:41:14Color range : LimitedColor primaries : BT.601 PALTransfer characteristics : BT.470 System B, BT.470 System GMatrix coefficients : BT.601

AudioID : 2Format : AACFormat/Info : Advanced Audio CodecFormat profile : LCCodec ID : 40Duration : 10 min 18 sBit rate mode : ConstantBit rate : 128 kb/sChannel(s) : 1 channelChannel positions : Front: CSampling rate : 48.0 kHzFrame rate : 46.875 FPS (1024 spf)Compression mode : LossyStream size : 9.43 MiB (11%)Language : RussianDefault : YesAlternate group : 1Encoded date : UTC 2017-01-02 13:41:14Tagged date : UTC 2017-01-02 13:41:14


Трекер:  [ 02-Янв-2017 16:30 ]

  

Скачать .torrent

Размер .torrent файла 14 KB


Размер: 90 MB
Хэш (hash) релиза: 8e1aeb6f1345de3e39f57cc409ab94a2ac5500c9

Еще никто не оставлял запись к записи скачать торрент [MULT] Раз ковбой, два ковбой... . Будь первым!

!Обратная связь