Micro Simulateur – juillet 2018 | Dan Miller | 1x774 Acacias 38

Скачать через торрент [MULT] Дом для леопарда бесплатно русская версия torrent активатор

Статистика раздачи
Размер:  82 MB   |    Зарегистрирован:  1 год 6 месяцев   |    .torrent скачан:  23 раза   |   
Раздают:  1  
   
загрузка...
 
Автор Сообщение

Galfimbul

avatar Galfimbul


<span class="post-font-serif1">Дом для леопарда</span>

<span class="post-font-serif1">Год выпуска: 1979
Страна: СССР
Жанр: мультфильм, короткометражка
Продолжительность: 00:09:24
Перевод: не требуется
Cубтитры: нет</span>
<span class="post-font-serif1">Режиссер: Анатолий Резников</span>
<span class="post-font-serif1">Роли озвучивали: Александр Очеретянский, А. Минаков</span>
<span class="post-font-serif1">Описание: Как звери помогали глупому Леопарду найти себе дом.</span>
<span class="post-font-serif1">Релиз группы </span>
<span class="post-font-serif1">Качество: DVDRip / <a href="viewtopic.php?t=3460808" class="postLink">рип с DVD5 (Крупный план)</a>
Формат: MP4
Видео кодек: H.264
Аудио кодек: AAC
Видео: 480x360 AR:4/3 1080 kbps 25 fps
Аудио : 1ch 48 kHz 128 kbps</span>
avs [info]: 480x360p 1:1 @ 25/1 fps (cfr)
x264 [info]: using SAR=1/1
x264 [info]: using cpu capabilities: MMX2 SSE2Fast SSSE3 SSE4.2 AVX FMA3 AVX2 LZCNT BMI2
x264 [info]: profile High, level 4.1

x264 [info]: frame I:90 Avg QP:19.61 size: 32122
x264 [info]: frame P:3365 Avg QP:23.23 size: 11081
x264 [info]: frame B:10665 Avg QP:27.49 size: 3393
x264 [info]: consecutive B-frames: 3.6% 4.8% 8.4% 21.2% 16.7% 31.2% 8.0% 3.6% 1.6% 1.0%
x264 [info]: mb I I16..4: 2.7% 73.0% 24.3%
x264 [info]: mb P I16..4: 0.5% 7.7% 2.3% P16..4: 36.6% 32.8% 17.1% 2.0% 0.2% skip: 0.8%
x264 [info]: mb B I16..4: 0.0% 2.5% 1.0% B16..8: 32.1% 17.0% 3.1% direct: 7.0% skip:37.3% L0:49.0% L1:33.3% BI:17.7%
x264 [info]: 8x8 transform intra:72.4% inter:71.6%
x264 [info]: direct mvs spatial:96.6% temporal:3.4%
x264 [info]: coded y,uvDC,uvAC intra: 92.1% 54.5% 16.9% inter: 36.7% 22.6% 2.1%
x264 [info]: i16 v,h,dc,p: 32% 20% 9% 39%
x264 [info]: i8 v,h,dc,ddl,ddr,vr,hd,vl,hu: 34% 7% 6% 7% 8% 9% 8% 10% 12%
x264 [info]: i4 v,h,dc,ddl,ddr,vr,hd,vl,hu: 39% 6% 4% 7% 9% 10% 9% 8% 9%
x264 [info]: i8c dc,h,v,p: 28% 34% 19% 19%
x264 [info]: Weighted P-Frames: Y:61.5% UV:34.4%
x264 [info]: ref P L0: 40.6% 17.0% 11.7% 7.8% 5.5% 5.0% 3.9% 2.6% 2.2% 2.3% 1.4% 0.0%
x264 [info]: ref B L0: 64.7% 12.6% 6.2% 4.7% 3.3% 3.7% 2.8% 1.4% 0.5%
x264 [info]: ref B L1: 95.3% 4.7%
x264 [info]: kb/s:1081.62

encoded 14120 frames, 22.59 fps, 1081.63 kb/s

GeneralComplete name : D:\Torrents\Dom dlya leoparda.1979.DVDRip.x264.640x.rip by Frost O.S.mp4Format : MPEG-4Format profile : Base MediaCodec ID : isom (isom/avc1)File size : 82.1 MiBDuration : 9 min 24 sOverall bit rate : 1 220 kb/sMovie name : Dom dlya leoparda 1979 DVDRip x264 640x rip by Frost O SGenre : AnimationContentType : Short FilmEncoded date : UTC 2017-01-02 13:37:07Tagged date : UTC 2017-01-02 13:37:30Writing application : MkvToMp4 version: 0.224 (x64)Cover : YesComment : rip by Frost O.SLongDescription : Как звери помогали глупому Леопарду найти себе дом.

VideoID : 1Format : AVCFormat/Info : Advanced Video CodecFormat profile : [email protected] settings, CABAC : YesFormat settings, ReFrames : 10 framesCodec ID : avc1Codec ID/Info : Advanced Video CodingDuration : 9 min 24 sBit rate : 1 080 kb/sMaximum bit rate : 3 986 kb/sWidth : 480 pixelsHeight : 360 pixelsDisplay aspect ratio : 4:3Frame rate mode : ConstantFrame rate : 25.000 FPSColor space : YUVChroma subsampling : 4:2:0Bit depth : 8 bitsScan type : ProgressiveBits/(Pixel*Frame) : 0.250Stream size : 72.8 MiB (89%)Writing library : x264 core 148 r2705 3f5ed56Encoding settings : cabac=1 / ref=10 / deblock=1:-2:-2 / analyse=0x3:0x133 / me=umh / subme=11 / psy=1 / psy_rd=0.85:0.00 / mixed_ref=1 / me_range=48 / chroma_me=1 / trellis=2 / 8x8dct=1 / cqm=0 / deadzone=21,11 / fast_pskip=0 / chroma_qp_offset=-2 / threads=6 / lookahead_threads=1 / sliced_threads=0 / nr=0 / decimate=0 / interlaced=0 / bluray_compat=0 / constrained_intra=0 / bframes=9 / b_pyramid=2 / b_adapt=2 / b_bias=0 / direct=3 / weightb=1 / open_gop=0 / weightp=2 / keyint=250 / keyint_min=25 / scenecut=40 / intra_refresh=0 / rc_lookahead=60 / rc=2pass / mbtree=1 / bitrate=1080 / ratetol=1.0 / qcomp=0.60 / qpmin=0 / qpmax=69 / qpstep=4 / cplxblur=20.0 / qblur=0.5 / ip_ratio=1.40 / aq=1:0.90Language : EnglishEncoded date : UTC 2017-01-02 13:37:07Tagged date : UTC 2017-01-02 13:37:08Color range : LimitedColor primaries : BT.601 PALTransfer characteristics : BT.470 System B, BT.470 System GMatrix coefficients : BT.601

AudioID : 2Format : AACFormat/Info : Advanced Audio CodecFormat profile : LCCodec ID : 40Duration : 9 min 24 sBit rate mode : ConstantBit rate : 128 kb/sChannel(s) : 1 channelChannel positions : Front: CSampling rate : 48.0 kHzFrame rate : 46.875 FPS (1024 spf)Compression mode : LossyStream size : 8.62 MiB (10%)Language : RussianDefault : YesAlternate group : 1Encoded date : UTC 2017-01-02 13:37:08Tagged date : UTC 2017-01-02 13:37:08


Трекер:  [ 02-Янв-2017 16:30 ]

  

Скачать .torrent

Размер .torrent файла 13 KB


Размер: 82 MB
Хэш (hash) релиза: 0e39c5bf74c28149b835bdc61075d98a55e3312a

Еще никто не оставлял запись к записи скачать торрент [MULT] Дом для леопарда . Будь первым!

!Обратная связь