Brittany Marie - NEW Gallery 470! | Joshiraku | Free Rein HDTV 720p AC3 5.1

Скачать через торрент [MULT] Чертёнок №13 бесплатно русская версия torrent активатор

Статистика раздачи
Размер:  83 MB   |    Зарегистрирован:  1 год 7 месяцев   |    .torrent скачан:  21 раз   |   
Раздают:  1  
   
загрузка...
 
Автор Сообщение

Galfimbul

avatar Galfimbul


<span class="post-font-serif1">Чертёнок №13</span>

<span class="post-font-serif1">Год выпуска: 1982
Страна: СССР
Жанр: мультфильм, короткометражка
Продолжительность: 00:09:33
Перевод: не требуется
Cубтитры: нет</span>
<span class="post-font-serif1">Режиссер: Натан Лернер</span>
<span class="post-font-serif1">Роли озвучивали: Татьяна Захава, Светлана Травкина, Владимир Басов, Светлана Харлап</span>
<span class="post-font-serif1">Описание: В школе для чертей тема урока «Любовь». Кого же все-таки должен любить черт? У чертенка N13 свой ответ, который никак не соответствует школьной программе…</span>
<span class="post-font-serif1">Релиз группы </span>
<span class="post-font-serif1">Качество: DVDRip / <a href="viewtopic.php?t=3460808" class="postLink">рип с DVD5 (Крупный план)</a>
Формат: MP4
Видео кодек: H.264
Аудио кодек: AAC
Видео: 482x360 AR:4/3 1080 kbps 25 fps
Аудио : 1ch 48 kHz 128 kbps</span>
avs [info]: 482x360p 1:1 @ 25/1 fps (cfr)
x264 [info]: using SAR=1/1
x264 [info]: using cpu capabilities: MMX2 SSE2Fast SSSE3 SSE4.2 AVX FMA3 AVX2 LZCNT BMI2
x264 [info]: profile High, level 4.1

x264 [info]: frame I:103 Avg QP:15.43 size: 30101
x264 [info]: frame P:3152 Avg QP:18.86 size: 12612
x264 [info]: frame B:11091 Avg QP:21.98 size: 3122
x264 [info]: consecutive B-frames: 1.7% 2.2% 6.7% 32.9% 17.5% 22.8% 7.4% 4.2% 2.9% 1.7%
x264 [info]: mb I I16..4: 4.1% 70.7% 25.2%
x264 [info]: mb P I16..4: 0.7% 8.2% 2.1% P16..4: 35.1% 37.1% 14.2% 1.9% 0.2% skip: 0.5%
x264 [info]: mb B I16..4: 0.2% 0.9% 0.2% B16..8: 37.9% 21.9% 2.9% direct: 8.8% skip:27.2% L0:49.6% L1:36.1% BI:14.4%
x264 [info]: 8x8 transform intra:72.4% inter:68.9%
x264 [info]: direct mvs spatial:98.9% temporal:1.1%
x264 [info]: coded y,uvDC,uvAC intra: 83.9% 83.0% 55.4% inter: 34.1% 33.2% 6.5%
x264 [info]: i16 v,h,dc,p: 31% 22% 6% 41%
x264 [info]: i8 v,h,dc,ddl,ddr,vr,hd,vl,hu: 12% 14% 8% 8% 11% 10% 12% 10% 14%
x264 [info]: i4 v,h,dc,ddl,ddr,vr,hd,vl,hu: 12% 19% 5% 7% 12% 10% 12% 9% 13%
x264 [info]: i8c dc,h,v,p: 30% 35% 20% 15%
x264 [info]: Weighted P-Frames: Y:38.2% UV:19.1%
x264 [info]: ref P L0: 32.2% 11.1% 13.7% 9.3% 7.6% 6.7% 5.9% 4.1% 4.0% 3.9% 1.5% 0.0%
x264 [info]: ref B L0: 60.5% 14.2% 7.6% 4.7% 3.9% 3.6% 3.0% 1.7% 0.7%
x264 [info]: ref B L1: 93.1% 6.9%
x264 [info]: kb/s:1080.12

encoded 14346 frames, 23.24 fps, 1080.13 kb/s

GeneralComplete name : D:\Torrents\Chertenok_№13.1982.DVDRip.x264.640x.rip by Frost O.S.mp4Format : MPEG-4Format profile : Base MediaCodec ID : isom (isom/avc1)File size : 83.4 MiBDuration : 9 min 33 sOverall bit rate : 1 218 kb/sMovie name : Chertenok_№13 1982 DVDRip x264 640x rip by Frost O SGenre : AnimationContentType : Short FilmEncoded date : UTC 2017-01-02 13:44:49Tagged date : UTC 2017-01-02 13:44:51Writing application : MkvToMp4 version: 0.224 (x64)Cover : YesComment : rip by Frost O.SLongDescription : В школе для чертей тема урока «Любовь». Кого же все-таки должен любить черт? У чертенка N13 свой ответ, который никак не соответствует школьной программе…

VideoID : 1Format : AVCFormat/Info : Advanced Video CodecFormat profile : [email protected] settings, CABAC : YesFormat settings, ReFrames : 10 framesCodec ID : avc1Codec ID/Info : Advanced Video CodingDuration : 9 min 33 sBit rate : 1 080 kb/sMaximum bit rate : 2 229 kb/sWidth : 482 pixelsHeight : 360 pixelsDisplay aspect ratio : 4:3Frame rate mode : ConstantFrame rate : 25.000 FPSColor space : YUVChroma subsampling : 4:2:0Bit depth : 8 bitsScan type : ProgressiveBits/(Pixel*Frame) : 0.249Stream size : 73.9 MiB (89%)Writing library : x264 core 148 r2705 3f5ed56Encoding settings : cabac=1 / ref=10 / deblock=1:-2:-2 / analyse=0x3:0x133 / me=umh / subme=11 / psy=1 / psy_rd=0.85:0.00 / mixed_ref=1 / me_range=48 / chroma_me=1 / trellis=2 / 8x8dct=1 / cqm=0 / deadzone=21,11 / fast_pskip=0 / chroma_qp_offset=-2 / threads=6 / lookahead_threads=1 / sliced_threads=0 / nr=0 / decimate=0 / interlaced=0 / bluray_compat=0 / constrained_intra=0 / bframes=9 / b_pyramid=2 / b_adapt=2 / b_bias=0 / direct=3 / weightb=1 / open_gop=0 / weightp=2 / keyint=250 / keyint_min=25 / scenecut=40 / intra_refresh=0 / rc_lookahead=60 / rc=2pass / mbtree=1 / bitrate=1080 / ratetol=1.0 / qcomp=0.60 / qpmin=0 / qpmax=69 / qpstep=4 / cplxblur=20.0 / qblur=0.5 / ip_ratio=1.40 / aq=1:0.90Language : EnglishEncoded date : UTC 2017-01-02 13:44:49Tagged date : UTC 2017-01-02 13:44:50Color range : LimitedColor primaries : BT.601 PALTransfer characteristics : BT.470 System B, BT.470 System GMatrix coefficients : BT.601

AudioID : 2Format : AACFormat/Info : Advanced Audio CodecFormat profile : LCCodec ID : 40Duration : 9 min 33 sBit rate mode : ConstantBit rate : 128 kb/sChannel(s) : 1 channelChannel positions : Front: CSampling rate : 48.0 kHzFrame rate : 46.875 FPS (1024 spf)Compression mode : LossyStream size : 8.76 MiB (11%)Language : RussianDefault : YesAlternate group : 1Encoded date : UTC 2017-01-02 13:44:50Tagged date : UTC 2017-01-02 13:44:50


Трекер:  [ 02-Янв-2017 16:30 ]

  

Скачать .torrent

Размер .torrent файла 13 KB


Размер: 83 MB
Хэш (hash) релиза: 9dbc6fb275c083a6c75c752425201ba3a8466aa4

Еще никто не оставлял запись к записи скачать торрент [MULT] Чертёнок №13 . Будь первым!

!Обратная связь