the damsel and the daggerman a blud novella by dawson delilah s | HD Vixen - The Movie (2017) | Далее

Скачать через торрент [VIDEO] Малефисента Maleficent бесплатно русская версия torrent активатор

Статистика раздачи
Размер:  401 MB   |    Зарегистрирован:  1 год 6 месяцев   |    .torrent скачан:  22 раза   |   
Раздают:  1  
   
загрузка...
 
Автор Сообщение

Galfimbul

avatar Galfimbul


<span class="post-font-serif1">Малефисента / Maleficent</span>

<span class="post-font-serif1">Год выпуска: 2014
Страна: США, Великобритания
Жанр: Фэнтези, Приключения, Мелодрама
Продолжительность: 01:37:28
Перевод: русский Профессиональный (полное дублирование) Blu-ray EUR
Cубтитры: нет</span>
<span class="post-font-serif1">Режиссер: Роберт Стромберг / Robert Stromberg</span>
<span class="post-font-serif1">В ролях: Анджелина Джоли, Эль Фаннинг, Шарлто Копли, Лесли Мэнвилл, Имелда Стонтон, Джуно Темпл, Сэм Райли, Брентон Туэйтс, Кеннет Крэнэм, Сара Флинд и другие .</span>
<span class="post-font-serif1">Описание: Юная волшебница Малефисента вела уединенную жизнь в зачарованном лесу, окруженная сказочными существами, но однажды все изменилось… В её мир вторглись люди, которые принесли с собой разрушение и хаос, и Малефисенте пришлось встать на защиту своих подданных, призвав на помощь могущественные тёмные силы..</span>
<span class="post-font-serif1">Релиз группы </span>
<span class="post-font-serif1">Качество: HDRip / рип с BDRip 720p
Формат: MP4
Видео кодек: XviD
Аудио кодек: AAC
Видео: 480x200 AR:2.40 439 kbps 23.976 fps
Аудио: [Russian] 2ch 48 kHz 128 kbps - [Dub] Профессиональный (полное дублирование) Blu-ray EUR</span>
GeneralComplete name : D:\Torrents\Maleficent.2014.HDRip.XviD.480x.rip by Frost O.S.mp4Format : MPEG-4Format profile : Base MediaCodec ID : isom (isom/iso2)File size : 401 MiBDuration : 1 h 37 minOverall bit rate mode : VariableOverall bit rate : 575 kb/sMovie name : Maleficent 2014 HDRip XviD 480x rip by Frost O SGenre : FantasyContentType : Short FilmEncoded date : UTC 2017-01-02 13:12:56Tagged date : UTC 2017-01-02 13:13:33Writing application : MkvToMp4 version: 0.224 (x64)Cover : YesComment : rip by Frost O.SLongDescription : Юная волшебница Малефисента вела уединенную жизнь в зачарованном лесу, окруженная сказочными существами, но однажды все изменилось… В её мир вторглись люди, которые принесли с собой разрушение и хаос, и Малефисенте пришлось встать на защиту своих подданных, призвав на помощь могущественные тёмные силы.

VideoID : 1Format : MPEG-4 VisualFormat profile : Advanced [email protected] settings, BVOP : YesFormat settings, QPel : NoFormat settings, GMC : No warppointsFormat settings, Matrix : CustomCodec ID : 20Duration : 1 h 37 minBit rate mode : VariableBit rate : 439 kb/sMaximum bit rate : 3 420 kb/sWidth : 480 pixelsHeight : 200 pixelsDisplay aspect ratio : 2.40:1Frame rate mode : ConstantFrame rate : 23.976 (24000/1001) FPSOriginal frame rate : 23.976 (23976/1000) FPSColor space : YUVChroma subsampling : 4:2:0Bit depth : 8 bitsScan type : ProgressiveCompression mode : LossyBits/(Pixel*Frame) : 0.191Stream size : 306 MiB (76%)Title : avi_GPAC0.5.2_DEV_rev248_g39d5978_masterWriting library : XviD 1.2.1 (UTC 2008-12-04)Language : EnglishTagged date : UTC 2017-01-02 13:13:03

AudioID : 2Format : AACFormat/Info : Advanced Audio CodecFormat profile : LCCodec ID : 40Duration : 1 h 37 minBit rate mode : VariableBit rate : 128 kb/sMaximum bit rate : 135 kb/sChannel(s) : 2 channelsChannel positions : Front: L RSampling rate : 48.0 kHzFrame rate : 46.875 FPS (1024 spf)Compression mode : LossyStream size : 89.2 MiB (22%)Title : DUB_ Blu_ray EUR / DUB_ Blu_ray EURLanguage : RussianDefault : YesAlternate group : 1Encoded date : UTC 2017-01-02 13:13:01Tagged date : UTC 2017-01-02 13:13:03


Трекер:  [ 02-Янв-2017 15:30 ]

  

Скачать .torrent

Размер .torrent файла 16 KB


Размер: 401 MB
Хэш (hash) релиза: 5da011f85da5117961275e79840e93af32eb78e3

Торренты, похожие на [VIDEO] Малефисента Maleficent скачать торрент

Форум Название Автор Размер S L Добавлен
Видео (Фильмы/Клипы) ·· [VIDEO] Малефисента / Maleficent (Роберт Стромберг / Robert Stromberg) [2014, фэнтези, приключения, мелодрама, HDRip] [MP4, 960x] Dub (Rus, Ukr), Original, Sub (rus, eng) Galfimbul 14426731711.34 GB 0 0 1483364389

16:39

2-Янв-17

Еще никто не оставлял запись к записи скачать торрент [VIDEO] Малефисента Maleficent . Будь первым!

!Обратная связь