Vincent Laresca | Giant Killing | Angie Tribeca: Sonst nichts!

Скачать через торрент [VIDEO] Малефисента Maleficent бесплатно русская версия torrent активатор

Статистика раздачи
Размер:  1.34 GB   |    Зарегистрирован:  1 год 6 месяцев   |    .torrent скачан:  35 раз   |   
Раздают:  2  
   
загрузка...
 
Автор Сообщение

Galfimbul

avatar Galfimbul


<span class="post-font-serif1">Малефисента / Maleficent</span>

<span class="post-font-serif1">Год выпуска: 2014
Страна: США, Великобритания
Жанр: Фэнтези, Приключения, Мелодрама
Продолжительность: 01:37:28
Перевод №1: русский Профессиональный (полное дублирование) Blu-ray EUR
Перевод №2: украинский Профессиональный (полное дублирование) iTunes
Оригинальная дорожка: Есть
Cубтитры: Russian (iTunes), English (iTunes, SDH, SDH-COLORED)</span>
<span class="post-font-serif1">Режиссер: Роберт Стромберг / Robert Stromberg</span>
<span class="post-font-serif1">В ролях: Анджелина Джоли, Эль Фаннинг, Шарлто Копли, Лесли Мэнвилл, Имелда Стонтон, Джуно Темпл, Сэм Райли, Брентон Туэйтс, Кеннет Крэнэм, Сара Флинд и другие .</span>
<span class="post-font-serif1">Описание: Юная волшебница Малефисента вела уединенную жизнь в зачарованном лесу, окруженная сказочными существами, но однажды все изменилось… В её мир вторглись люди, которые принесли с собой разрушение и хаос, и Малефисенте пришлось встать на защиту своих подданных, призвав на помощь могущественные тёмные силы..</span>
<span class="post-font-serif1">Релиз группы </span>
<span class="post-font-serif1">Качество: HDRip / рип с BDRip 720p
Формат: MP4
Видео кодек: H.264
Аудио кодек: AAC
Видео: 960x400 AR:2.40 1574 kbps 23.976 fps
Аудио №1: [Russian] 2ch 48 kHz 128 kbps - [Dub] Профессиональный (полное дублирование) Blu-ray EUR
Аудио №2: [Russian] 2ch 48 kHz 128 kbps - [Dub] Профессиональный (полное дублирование) iTunes
Аудио №3: [English] 2ch 48 kHz 128 kbps - Оригинал</span>
avs [info]: 960x400p 1:1 @ 2997/125 fps (cfr)
x264 [info]: using SAR=1/1
x264 [info]: using cpu capabilities: MMX2 SSE2Fast SSSE3 SSE4.2 AVX FMA3 AVX2 LZCNT BMI2
x264 [info]: profile High, level 4.1

x264 [info]: frame I:1257 Avg QP:16.18 size: 71508
x264 [info]: frame P:34271 Avg QP:19.56 size: 16983
x264 [info]: frame B:104685 Avg QP:21.58 size: 4572
x264 [info]: consecutive B-frames: 3.5% 3.6% 12.3% 26.8% 14.6% 31.7% 3.9% 2.1% 1.3%
x264 [info]: mb I I16..4: 10.7% 60.2% 29.1%
x264 [info]: mb P I16..4: 0.6% 7.6% 1.4% P16..4: 32.0% 35.4% 13.8% 0.0% 0.0% skip: 9.4%
x264 [info]: mb B I16..4: 0.0% 0.8% 0.1% B16..8: 32.1% 17.8% 2.8% direct: 4.5% skip:41.8% L0:38.8% L1:45.0% BI:16.2%
x264 [info]: 8x8 transform intra:75.9% inter:52.4%
x264 [info]: direct mvs spatial:96.3% temporal:3.7%
x264 [info]: coded y,uvDC,uvAC intra: 92.9% 87.8% 65.7% inter: 19.5% 16.4% 7.3%
x264 [info]: i16 v,h,dc,p: 12% 9% 18% 61%
x264 [info]: i8 v,h,dc,ddl,ddr,vr,hd,vl,hu: 8% 7% 6% 10% 15% 13% 14% 13% 14%
x264 [info]: i4 v,h,dc,ddl,ddr,vr,hd,vl,hu: 8% 6% 5% 10% 16% 14% 14% 12% 14%
x264 [info]: i8c dc,h,v,p: 43% 22% 16% 19%
x264 [info]: Weighted P-Frames: Y:12.7% UV:8.2%
x264 [info]: ref P L0: 52.3% 11.7% 15.8% 6.7% 4.7% 3.3% 2.8% 2.4% 0.4% 0.0%
x264 [info]: ref B L0: 81.1% 8.8% 4.0% 2.8% 2.1% 0.9% 0.3%
x264 [info]: ref B L1: 95.7% 4.3%
x264 [info]: kb/s:1573.89

encoded 140213 frames, 16.66 fps, 1573.89 kb/s
GeneralComplete name : D:\Torrents\Maleficent.2014.HDRip.x264.960x.rip by Frost O.S.mp4Format : MPEG-4Format profile : Base MediaCodec ID : isom (isom/avc1/iso2)File size : 1.34 GiBDuration : 1 h 37 minOverall bit rate mode : VariableOverall bit rate : 1 973 kb/sMovie name : Maleficent 2014 HDRip x264 960x rip by Frost O SGenre : FantasyContentType : Short FilmEncoded date : UTC 2017-01-02 12:58:08Tagged date : UTC 2017-01-02 13:08:01Writing application : MkvToMp4 version: 0.224 (x64)Cover : YesComment : rip by Frost O.SLongDescription : Юная волшебница Малефисента вела уединенную жизнь в зачарованном лесу, окруженная сказочными существами, но однажды все изменилось… В её мир вторглись люди, которые принесли с собой разрушение и хаос, и Малефисенте пришлось встать на защиту своих подданных, призвав на помощь могущественные тёмные силы.

VideoID : 1Format : AVCFormat/Info : Advanced Video CodecFormat profile : [email protected] settings, CABAC : YesFormat settings, ReFrames : 8 framesCodec ID : avc1Codec ID/Info : Advanced Video CodingDuration : 1 h 37 minBit rate : 1 574 kb/sMaximum bit rate : 6 486 kb/sWidth : 960 pixelsHeight : 400 pixelsDisplay aspect ratio : 2.40:1Frame rate mode : ConstantFrame rate : 23.976 (24000/1001) FPSOriginal frame rate : 23.976 (23976/1000) FPSColor space : YUVChroma subsampling : 4:2:0Bit depth : 8 bitsScan type : ProgressiveBits/(Pixel*Frame) : 0.171Stream size : 1.07 GiB (80%)Writing library : x264 core 148 r2705 3f5ed56Encoding settings : cabac=1 / ref=8 / deblock=1:-2:-2 / analyse=0x3:0x113 / me=umh / subme=11 / psy=1 / psy_rd=1.00:0.15 / mixed_ref=1 / me_range=32 / chroma_me=1 / trellis=2 / 8x8dct=1 / cqm=0 / deadzone=21,11 / fast_pskip=0 / chroma_qp_offset=-3 / threads=6 / lookahead_threads=1 / sliced_threads=0 / nr=0 / decimate=0 / interlaced=0 / bluray_compat=0 / constrained_intra=0 / bframes=8 / b_pyramid=2 / b_adapt=2 / b_bias=0 / direct=3 / weightb=1 / open_gop=0 / weightp=2 / keyint=250 / keyint_min=23 / scenecut=40 / intra_refresh=0 / rc=2pass / mbtree=0 / bitrate=1574 / ratetol=1.0 / qcomp=0.70 / qpmin=0 / qpmax=69 / qpstep=4 / cplxblur=20.0 / qblur=0.5 / ip_ratio=1.40 / pb_ratio=1.30 / aq=2:1.00Language : EnglishEncoded date : UTC 2017-01-02 12:58:08Tagged date : UTC 2017-01-02 13:03:47Color range : LimitedColor primaries : BT.709Transfer characteristics : BT.709Matrix coefficients : BT.709

Audio #1ID : 2Format : AACFormat/Info : Advanced Audio CodecFormat profile : LCCodec ID : 40Duration : 1 h 37 minBit rate mode : VariableBit rate : 128 kb/sMaximum bit rate : 135 kb/sChannel(s) : 2 channelsChannel positions : Front: L RSampling rate : 48.0 kHzFrame rate : 46.875 FPS (1024 spf)Compression mode : LossyStream size : 89.2 MiB (6%)Title : DUB_ Blu_ray EUR / DUB_ Blu_ray EURLanguage : RussianDefault : YesAlternate group : 1Encoded date : UTC 2017-01-02 13:02:27Tagged date : UTC 2017-01-02 13:03:47

Audio #2ID : 3Format : AACFormat/Info : Advanced Audio CodecFormat profile : LCCodec ID : 40Duration : 1 h 37 minBit rate mode : VariableBit rate : 128 kb/sMaximum bit rate : 135 kb/sChannel(s) : 2 channelsChannel positions : Front: L RSampling rate : 48.0 kHzFrame rate : 46.875 FPS (1024 spf)Compression mode : LossyStream size : 89.2 MiB (6%)Title : DUB_ iTunes / DUB_ iTunesLanguage : UkrainianDefault : NoAlternate group : 1Encoded date : UTC 2017-01-02 13:03:20Tagged date : UTC 2017-01-02 13:03:47

Audio #3ID : 4Format : AACFormat/Info : Advanced Audio CodecFormat profile : LCCodec ID : 40Duration : 1 h 37 minBit rate mode : VariableBit rate : 128 kb/sMaximum bit rate : 135 kb/sChannel(s) : 2 channelsChannel positions : Front: L RSampling rate : 48.0 kHzFrame rate : 46.875 FPS (1024 spf)Compression mode : LossyStream size : 89.2 MiB (6%)Title : Original / OriginalLanguage : EnglishDefault : NoAlternate group : 1Encoded date : UTC 2017-01-02 13:03:31Tagged date : UTC 2017-01-02 13:03:47

Text #1ID : 5Format : Timed TextMuxing mode : sbtlCodec ID : tx3gDuration : 1 h 28 minBit rate mode : VariableBit rate : 55 b/sStream size : 35.9 KiB (0%)Title : iTunes / iTunesLanguage : RussianDefault : YesForced : NoAlternate group : 2Encoded date : UTC 2017-01-02 13:03:47Tagged date : UTC 2017-01-02 13:03:47

Text #2ID : 6Format : Timed TextMuxing mode : sbtlCodec ID : tx3gDuration : 1 h 28 minBit rate mode : VariableBit rate : 36 b/sStream size : 23.4 KiB (0%)Title : iTunes / iTunesLanguage : EnglishDefault : NoForced : NoAlternate group : 2Encoded date : UTC 2017-01-02 13:03:47Tagged date : UTC 2017-01-02 13:03:47

Text #3ID : 7Format : Timed TextMuxing mode : sbtlCodec ID : tx3gDuration : 1 h 28 minBit rate mode : VariableBit rate : 36 b/sStream size : 23.4 KiB (0%)Language : EnglishDefault : NoForced : NoAlternate group : 2Encoded date : UTC 2017-01-02 13:03:47Tagged date : UTC 2017-01-02 13:03:47

Text #4ID : 8Format : Timed TextMuxing mode : sbtlCodec ID : tx3gDuration : 1 h 31 minBit rate mode : VariableBit rate : 46 b/sStream size : 30.5 KiB (0%)Title : SDH / SDHLanguage : EnglishDefault : NoForced : NoAlternate group : 2Encoded date : UTC 2017-01-02 13:03:47Tagged date : UTC 2017-01-02 13:03:47

Text #5ID : 9Format : Timed TextMuxing mode : sbtlCodec ID : tx3gDuration : 1 h 31 minBit rate mode : VariableBit rate : 61 b/sStream size : 40.7 KiB (0%)Title : SDH_COLORED / SDH_COLOREDLanguage : EnglishDefault : NoForced : NoAlternate group : 2Encoded date : UTC 2017-01-02 13:03:47Tagged date : UTC 2017-01-02 13:03:47


Трекер:  [ 02-Янв-2017 15:30 ]

  

Скачать .torrent

Размер .torrent файла 14 KB


Размер: 1.34 GB
Хэш (hash) релиза: 6ac6a7b7ee079c3d531eee728d089a744e96fb67

Торренты, похожие на [VIDEO] Малефисента Maleficent скачать торрент

Форум Название Автор Размер S L Добавлен
Видео (Фильмы/Клипы) ·· [VIDEO] Малефисента / Maleficent (Роберт Стромберг / Robert Stromberg) [2014, фэнтези, приключения, мелодрама, HDRip] [MP4, 480x] Dub Galfimbul 420659320401 MB 0 0 1483364394

16:39

2-Янв-17

Еще никто не оставлял запись к записи скачать торрент [VIDEO] Малефисента Maleficent . Будь первым!

!Обратная связь