Sofia die Erste - Auf einmal Prinzessin | Action Point | Concerts

Скачать через торрент [VIDEO] Гринч – похититель Рождества How the Grinch Stole Christmas бесплатно русская версия torrent активатор

Статистика раздачи
Размер:  1.85 GB   |    Зарегистрирован:  1 год 7 месяцев   |    .torrent скачан:  32 раза   |   
Раздают:  1  
   
загрузка...
 
Автор Сообщение

Galfimbul

avatar Galfimbul


<span class="post-font-serif1">Гринч - похититель Рождества / How the Grinch Stole Christmas</span>

<span class="post-font-serif1">Год выпуска: 2000
Страна: США, Германия
Жанр: мюзикл, фэнтези, комедия
Продолжительность: 01:44:56
Перевод №1: русский Профессиональный (полное дублирование) с IPTV TV1000 Premium HD
Перевод №2: русский Профессиональный (многоголосый, закадровый) Карусель #1
Перевод №3: русский Профессиональный (многоголосый, закадровый) Карусель #2
Перевод №4: русский Профессиональный (многоголосый, закадровый) Премьер-Видео
Перевод №5: русский Авторский (одноголосый, закадровый) Ю.Живов
Оригинальная дорожка: Есть
Cубтитры: Russian (2 варинта), English</span>
<span class="post-font-serif1">Режиссер: Рон Ховард / Ron Howard</span>
<span class="post-font-serif1">В ролях: Джим Керри, Тейлор Момсен, Джеффри Тэмбор, Кристин Барански, Билл Ирвин, Молли Шеннон, Клинт Ховард, Джош Райан Эванс, Минди Стерлинг, Рэйчел Уинфри и другие .</span>
<span class="post-font-serif1">Описание: Жил-был в городе Ктограде человечек, и звали его – Гринч. Был он весь зеленый и волосатый, никто его не любил. Обиделся Гринч на ктовичей и ушел жить на одинокую, обдуваемую всеми ветрами гору. Сидел там в своей пещере и злился на весь свет. Больше всего Гринч ненавидел Рождество. В то время, как все население Ктограда веселилось от души, барометр и без того всегда плохого настроения Гринча показывал нечто ужасное.
Каждое Рождество становилось для зеленого отшельника страшной пыткой. И вот однажды злобный житель горы решил покончить с этим праздником раз и навсегда. Пока беззаботные ктовичи сладко спали впредпраздничную ночь, вероломный Гринч решил украсть у горожан их Рождество.</span>
<span class="post-font-serif1">Релиз группы </span>
<span class="post-font-serif1">Качество: HDRip / <a href="viewtopic.php?t=4983451" class="postLink">рип с BDRip 1080p</a>
Формат: MP4
Видео кодек: H.264
Аудио кодек: AAC
Видео: 960x520 AR:1.85 1740 kbps 23.976 fps
Аудио №1: [Russian] 2ch 48 kHz 128 kbps - [Dub] Профессиональный (полное дублирование) с IPTV TV1000 Premium HD
Аудио №2: [Ukrainian] 2ch 48 kHz 128 kbps - [MVO] Профессиональный (многоголосый, закадровый) Карусель #1
Аудио №3: [Russian] 2ch 48 kHz 128 kbps - [MVO] Профессиональный (многоголосый, закадровый) Карусель #2
Аудио №4: [Russian] 2ch 48 kHz 128 kbps - [MVO] Профессиональный (многоголосый, закадровый) Премьер-Видео
Аудио №5: [Russian] 2ch 48 kHz 128 kbps - [VO] Авторский (одноголосый, закадровый) Ю.Живов
Аудио №6: [English] 2ch 48 kHz 128 kbps - Оригинал</span>
avs [info]: 960x520p 1:1 @ 2997/125 fps (cfr)
x264 [info]: using SAR=1/1
x264 [info]: using cpu capabilities: MMX2 SSE2Fast SSSE3 SSE4.2 AVX FMA3 AVX2 LZCNT BMI2
x264 [info]: profile High, level 4.1

x264 [info]: frame I:1152 Avg QP:17.43 size: 55539
x264 [info]: frame P:32560 Avg QP:20.94 size: 18047
x264 [info]: frame B:117248 Avg QP:22.54 size: 6099
x264 [info]: consecutive B-frames: 2.4% 3.5% 5.6% 23.5% 15.2% 28.9% 6.1% 11.6% 1.7% 0.8% 0.8%
x264 [info]: mb I I16..4: 4.6% 79.3% 16.1%
x264 [info]: mb P I16..4: 1.4% 14.1% 1.4% P16..4: 35.3% 34.4% 8.3% 0.0% 0.0% skip: 5.2%
x264 [info]: mb B I16..4: 0.1% 1.4% 0.1% B16..8: 36.6% 18.2% 2.2% direct: 5.4% skip:35.9% L0:43.7% L1:45.9% BI:10.4%
x264 [info]: 8x8 transform intra:83.3% inter:64.8%
x264 [info]: direct mvs spatial:98.0% temporal:2.0%
x264 [info]: coded y,uvDC,uvAC intra: 86.4% 85.7% 46.7% inter: 22.3% 22.8% 4.5%
x264 [info]: i16 v,h,dc,p: 9% 10% 4% 78%
x264 [info]: i8 v,h,dc,ddl,ddr,vr,hd,vl,hu: 9% 5% 4% 10% 15% 14% 15% 13% 14%
x264 [info]: i4 v,h,dc,ddl,ddr,vr,hd,vl,hu: 11% 5% 5% 9% 15% 15% 15% 11% 13%
x264 [info]: i8c dc,h,v,p: 37% 23% 18% 22%
x264 [info]: Weighted P-Frames: Y:18.1% UV:10.1%
x264 [info]: ref P L0: 47.6% 11.9% 19.0% 7.1% 5.7% 3.4% 3.1% 1.8% 0.4% 0.0%
x264 [info]: ref B L0: 78.6% 10.5% 5.3% 2.4% 1.8% 1.0% 0.3%
x264 [info]: ref B L1: 95.1% 4.9%
x264 [info]: kb/s:1736.48

encoded 150960 frames, 12.84 fps, 1736.48 kb/s
GeneralComplete name : D:\Torrents\How the Grinch Stole Christmas.2000.HDRip.x264.960x.rip by Frost O.S.mp4Format : MPEG-4Format profile : Base MediaCodec ID : isom (isom/avc1/iso2)File size : 1.85 GiBDuration : 1 h 44 minOverall bit rate mode : VariableOverall bit rate : 2 530 kb/sMovie name : How the Grinch Stole Christmas 2000 HDRip x264 960x rip by Frost O SGenre : FantasyContentType : Short FilmEncoded date : UTC 2017-01-02 11:22:29Tagged date : UTC 2017-01-02 11:25:08Writing application : MkvToMp4 version: 0.224 (x64)Cover : YesLongDescription : Жил-был в городе Ктограде человечек, и звали его — Гринч. Был он весь зеленый и волосатый, никто его не любил. Обиделся Гринч на ктовичей и ушел жить на одинокую, обдуваемую всеми ветрами гору. Сидел там в своей пещере и злился на весь свет. Больше всего Гринч ненавидел Рождество. В то время, как все население Ктограда веселилось от души, барометр и без того всегда плохого настроения Гринча показывал нечто ужасное. Каждое Рождество становилось для зеленого отшельника страшной пыткой. И вот однажды злобный житель горы решил покончить с этим праздником раз и навсегда. Пока беззаботные ктовичи сладко спали впредпраздничную ночь, вероломный Гринч решил украсть у горожан их Рождество.

VideoID : 1Format : AVCFormat/Info : Advanced Video CodecFormat profile : [email protected] settings, CABAC : YesFormat settings, ReFrames : 8 framesCodec ID : avc1Codec ID/Info : Advanced Video CodingDuration : 1 h 44 minBit rate : 1 740 kb/sMaximum bit rate : 4 280 kb/sWidth : 960 pixelsHeight : 520 pixelsDisplay aspect ratio : 1.85:1Frame rate mode : ConstantFrame rate : 23.976 (24000/1001) FPSOriginal frame rate : 23.976 (23976/1000) FPSColor space : YUVChroma subsampling : 4:2:0Bit depth : 8 bitsScan type : ProgressiveBits/(Pixel*Frame) : 0.145Stream size : 1.27 GiB (69%)Writing library : x264 core 148 r2705 3f5ed56Encoding settings : cabac=1 / ref=8 / deblock=1:-2:-2 / analyse=0x3:0x113 / me=umh / subme=11 / psy=1 / psy_rd=1.05:0.15 / mixed_ref=1 / me_range=32 / chroma_me=1 / trellis=2 / 8x8dct=1 / cqm=0 / deadzone=21,11 / fast_pskip=0 / chroma_qp_offset=-3 / threads=6 / lookahead_threads=1 / sliced_threads=0 / nr=0 / decimate=0 / interlaced=0 / bluray_compat=0 / constrained_intra=0 / bframes=10 / b_pyramid=2 / b_adapt=2 / b_bias=0 / direct=3 / weightb=1 / open_gop=0 / weightp=2 / keyint=250 / keyint_min=23 / scenecut=40 / intra_refresh=0 / rc=2pass / mbtree=0 / bitrate=1740 / ratetol=1.0 / qcomp=0.65 / qpmin=0 / qpmax=69 / qpstep=4 / cplxblur=20.0 / qblur=0.5 / ip_ratio=1.40 / pb_ratio=1.30 / aq=2:1.00Language : EnglishEncoded date : UTC 2017-01-02 11:22:29Tagged date : UTC 2017-01-02 11:23:18Color range : LimitedColor primaries : BT.709Transfer characteristics : BT.709Matrix coefficients : BT.709

Audio #1ID : 2Format : AACFormat/Info : Advanced Audio CodecFormat profile : LCCodec ID : 40Duration : 1 h 44 minBit rate mode : VariableBit rate : 128 kb/sMaximum bit rate : 132 kb/sChannel(s) : 2 channelsChannel positions : Front: L RSampling rate : 48.0 kHzFrame rate : 46.875 FPS (1024 spf)Compression mode : LossyStream size : 96.1 MiB (5%)Title : Dub_ c IPTV TV1000 Premium HD / Dub_ c IPTV TV1000 Premium HDLanguage : RussianDefault : YesAlternate group : 1Encoded date : UTC 2017-01-02 11:22:43Tagged date : UTC 2017-01-02 11:23:18

Audio #2ID : 3Format : AACFormat/Info : Advanced Audio CodecFormat profile : LCCodec ID : 40Duration : 1 h 44 minBit rate mode : VariableBit rate : 128 kb/sMaximum bit rate : 135 kb/sChannel(s) : 2 channelsChannel positions : Front: L RSampling rate : 48.0 kHzFrame rate : 46.875 FPS (1024 spf)Compression mode : LossyStream size : 96.1 MiB (5%)Title : MVO_ Karusel _1 / MVO_ Karusel _1Language : RussianDefault : NoAlternate group : 1Encoded date : UTC 2017-01-02 11:22:53Tagged date : UTC 2017-01-02 11:23:18

Audio #3ID : 4Format : AACFormat/Info : Advanced Audio CodecFormat profile : LCCodec ID : 40Duration : 1 h 44 minBit rate mode : VariableBit rate : 128 kb/sMaximum bit rate : 135 kb/sChannel(s) : 2 channelsChannel positions : Front: L RSampling rate : 48.0 kHzFrame rate : 46.875 FPS (1024 spf)Compression mode : LossyStream size : 96.1 MiB (5%)Title : MVO_ Karusel _2 / MVO_ Karusel _2Language : RussianDefault : NoAlternate group : 1Encoded date : UTC 2017-01-02 11:22:58Tagged date : UTC 2017-01-02 11:23:18

Audio #4ID : 5Format : AACFormat/Info : Advanced Audio CodecFormat profile : LCCodec ID : 40Duration : 1 h 44 minBit rate mode : VariableBit rate : 128 kb/sMaximum bit rate : 132 kb/sChannel(s) : 2 channelsChannel positions : Front: L RSampling rate : 48.0 kHzFrame rate : 46.875 FPS (1024 spf)Compression mode : LossyStream size : 96.1 MiB (5%)Title : MVO_ Premier videoLanguage : RussianDefault : NoAlternate group : 1Encoded date : UTC 2017-01-02 11:23:03Tagged date : UTC 2017-01-02 11:23:18

Audio #5ID : 6Format : AACFormat/Info : Advanced Audio CodecFormat profile : LCCodec ID : 40Duration : 1 h 44 minBit rate mode : VariableBit rate : 128 kb/sMaximum bit rate : 135 kb/sChannel(s) : 2 channelsChannel positions : Front: L RSampling rate : 48.0 kHzFrame rate : 46.875 FPS (1024 spf)Compression mode : LossyStream size : 96.1 MiB (5%)Title : VO_ Zhuvov / VO_ ZhuvovLanguage : RussianDefault : NoAlternate group : 1Encoded date : UTC 2017-01-02 11:23:07Tagged date : UTC 2017-01-02 11:23:18

Audio #6ID : 7Format : AACFormat/Info : Advanced Audio CodecFormat profile : LCCodec ID : 40Duration : 1 h 44 minBit rate mode : VariableBit rate : 128 kb/sMaximum bit rate : 135 kb/sChannel(s) : 2 channelsChannel positions : Front: L RSampling rate : 48.0 kHzFrame rate : 46.875 FPS (1024 spf)Compression mode : LossyStream size : 96.1 MiB (5%)Title : Original / OriginalLanguage : EnglishDefault : NoAlternate group : 1Encoded date : UTC 2017-01-02 11:23:12Tagged date : UTC 2017-01-02 11:23:18

Text #1ID : 8Format : Timed TextMuxing mode : sbtlCodec ID : tx3gDuration : 1 h 44 minBit rate mode : VariableBit rate : 126 b/sStream size : 96.4 KiB (0%)Title : SHD / SHDLanguage : RussianDefault : YesForced : NoAlternate group : 2Encoded date : UTC 2017-01-02 11:23:18Tagged date : UTC 2017-01-02 11:23:18

Text #2ID : 9Format : Timed TextMuxing mode : sbtlCodec ID : tx3gDuration : 1 h 37 minBit rate mode : VariableBit rate : 65 b/sStream size : 46.4 KiB (0%)Language : RussianDefault : NoForced : NoAlternate group : 2Encoded date : UTC 2017-01-02 11:23:18Tagged date : UTC 2017-01-02 11:23:18

Text #3ID : 10Format : Timed TextMuxing mode : sbtlCodec ID : tx3gDuration : 1 h 44 minBit rate mode : VariableBit rate : 58 b/sStream size : 44.8 KiB (0%)Language : EnglishDefault : NoForced : NoAlternate group : 2Encoded date : UTC 2017-01-02 11:23:18Tagged date : UTC 2017-01-02 11:23:18


Трекер:  [ 02-Янв-2017 15:30 ]

  

Скачать .torrent

Размер .torrent файла 19 KB


Размер: 1.85 GB
Хэш (hash) релиза: 72953ed9c29561d078c153b9c1a6e695974a2da9

Торренты, похожие на [VIDEO] Гринч – похититель Рождества How the Grinch Stole Christmas скачать торрент

Форум Название Автор Размер S L Добавлен
Видео (Фильмы/Клипы) ·· [VIDEO] Гринч – похититель Рождества / How the Grinch Stole Christmas (Рон Ховард / Ron Howard) [2000, мюзикл, фэнтези, HDRip] [MP4, 480x] Dub (с IPTV TV1000 Premium) Galfimbul 500050124477 MB 0 0 1483364378

16:39

2-Янв-17

Еще никто не оставлял запись к записи скачать торрент [VIDEO] Гринч – похититель Рождества How the Grinch Stole Christmas . Будь первым!

!Обратная связь