suntan movie download 300 mb | Amateur.Teen.Selfies.Mix.Pack.376 | Hard Rap Instrumental | Aggressive Hip Hop Beat (prod. ViolentBeatz)

Скачать через торрент [VIDEO] Гринч – похититель Рождества How the Grinch Stole Christmas бесплатно русская версия torrent активатор

Статистика раздачи
Размер:  477 MB   |    Зарегистрирован:  1 год 6 месяцев   |    .torrent скачан:  23 раза   |   
Раздают:  1  
   
загрузка...
 
Автор Сообщение

Galfimbul

avatar Galfimbul


<span class="post-font-serif1">Гринч - похититель Рождества / How the Grinch Stole Christmas</span>

<span class="post-font-serif1">Год выпуска: 2000
Страна: США, Германия
Жанр: мюзикл, фэнтези, комедия
Продолжительность: 01:44:56
Перевод: русский Профессиональный (полное дублирование) с IPTV TV1000 Premium HD
Cубтитры: нет</span>
<span class="post-font-serif1">Режиссер: Рон Ховард / Ron Howard</span>
<span class="post-font-serif1">В ролях: Джим Керри, Тейлор Момсен, Джеффри Тэмбор, Кристин Барански, Билл Ирвин, Молли Шеннон, Клинт Ховард, Джош Райан Эванс, Минди Стерлинг, Рэйчел Уинфри и другие .</span>
<span class="post-font-serif1">Описание: Жил-был в городе Ктограде человечек, и звали его – Гринч. Был он весь зеленый и волосатый, никто его не любил. Обиделся Гринч на ктовичей и ушел жить на одинокую, обдуваемую всеми ветрами гору. Сидел там в своей пещере и злился на весь свет. Больше всего Гринч ненавидел Рождество. В то время, как все население Ктограда веселилось от души, барометр и без того всегда плохого настроения Гринча показывал нечто ужасное.
Каждое Рождество становилось для зеленого отшельника страшной пыткой. И вот однажды злобный житель горы решил покончить с этим праздником раз и навсегда. Пока беззаботные ктовичи сладко спали впредпраздничную ночь, вероломный Гринч решил украсть у горожан их Рождество.</span>
<span class="post-font-serif1">Релиз группы </span>
<span class="post-font-serif1">Качество: HDRip / <a href="viewtopic.php?t=4983451" class="postLink">рип с BDRip 1080p</a>
Формат: MP4
Видео кодек: XviD
Аудио кодек: AAC
Видео: 480x256 AR:1.85 499 kbps 23.976 fps
Аудио: [Russian] 2ch 48 kHz 128 kbps - [Dub] Профессиональный (полное дублирование) с IPTV TV1000 Premium HD</span>
GeneralComplete name : D:\Torrents\How the Grinch Stole Christmas.2000.HDRip.XviD.480x.rip by Frost O.S.mp4Format : MPEG-4Format profile : Base MediaCodec ID : isom (isom/iso2)File size : 477 MiBDuration : 1 h 44 minOverall bit rate mode : VariableOverall bit rate : 635 kb/sMovie name : How the Grinch Stole Christmas 2000 HDRip XviD 480x rip by Frost O SGenre : FantasyContentType : Short FilmEncoded date : UTC 2017-01-02 11:44:57Tagged date : UTC 2017-01-02 11:45:23Writing application : MkvToMp4 version: 0.224 (x64)Cover : YesComment : rip by Frost O.SLongDescription : Жил-был в городе Ктограде человечек, и звали его – Гринч. Был он весь зеленый и волосатый, никто его не любил. Обиделся Гринч на ктовичей и ушел жить на одинокую, обдуваемую всеми ветрами гору. Сидел там в своей пещере и злился на весь свет. Больше всего Гринч ненавидел Рождество. В то время, как все население Ктограда веселилось от души, барометр и без того всегда плохого настроения Гринча показывал нечто ужасное. Каждое Рождество становилось для зеленого отшельника страшной пыткой. И вот однажды злобный житель горы решил покончить с этим праздником раз и навсегда. Пока беззаботные ктовичи сладко спали впредпраздничную ночь, вероломный Гринч решил украсть у горожан их Рождество.

VideoID : 1Format : MPEG-4 VisualFormat profile : Advanced [email protected] settings, BVOP : YesFormat settings, QPel : NoFormat settings, GMC : No warppointsFormat settings, Matrix : CustomCodec ID : 20Duration : 1 h 44 minBit rate mode : VariableBit rate : 499 kb/sMaximum bit rate : 2 470 kb/sWidth : 480 pixelsHeight : 256 pixelsDisplay aspect ratio : 1.85:1Frame rate mode : ConstantFrame rate : 23.976 (24000/1001) FPSOriginal frame rate : 23.976 (23976/1000) FPSColor space : YUVChroma subsampling : 4:2:0Bit depth : 8 bitsScan type : ProgressiveCompression mode : LossyBits/(Pixel*Frame) : 0.170Stream size : 375 MiB (79%)Title : avi_GPAC0.5.2_DEV_rev248_g39d5978_masterWriting library : XviD 1.2.1 (UTC 2008-12-04)Language : EnglishTagged date : UTC 2017-01-02 11:45:07

AudioID : 2Format : AACFormat/Info : Advanced Audio CodecFormat profile : LCCodec ID : 40Duration : 1 h 44 minBit rate mode : VariableBit rate : 128 kb/sMaximum bit rate : 132 kb/sChannel(s) : 2 channelsChannel positions : Front: L RSampling rate : 48.0 kHzFrame rate : 46.875 FPS (1024 spf)Compression mode : LossyStream size : 96.1 MiB (20%)Title : Dub_ c IPTV TV1000 Premium HD / Dub_ c IPTV TV1000 Premium HDLanguage : RussianDefault : YesAlternate group : 1Encoded date : UTC 2017-01-02 11:45:05Tagged date : UTC 2017-01-02 11:45:07


Трекер:  [ 02-Янв-2017 15:30 ]

  

Скачать .torrent

Размер .torrent файла 19 KB


Размер: 477 MB
Хэш (hash) релиза: e12da78406e0acdddc670667d8d17a31678cfb5e

Торренты, похожие на [VIDEO] Гринч – похититель Рождества How the Grinch Stole Christmas скачать торрент

Форум Название Автор Размер S L Добавлен
Видео (Фильмы/Клипы) ·· [VIDEO] Гринч – похититель Рождества / How the Grinch Stole Christmas (Рон Ховард / Ron Howard) [2000, мюзикл, фэнтези, HDRip] [MP4, 960x] Dub (с IPTV TV1000 Premium), MVO (Карусель #1, Карусель #2), MVO Премьер-Видео, Original, Sub (rus, eng) Galfimbul 19915992581.85 GB 0 0 1483364383

16:39

2-Янв-17

Еще никто не оставлял запись к записи скачать торрент [VIDEO] Гринч – похититель Рождества How the Grinch Stole Christmas . Будь первым!

!Обратная связь