Pulls et accessoires au tricot | Fortitude | Suivante

Скачать через торрент [VIDEO] Гол! Goal! бесплатно русская версия torrent активатор

Статистика раздачи
Размер:  2.65 GB   |    Зарегистрирован:  1 год 6 месяцев   |    .torrent скачан:  23 раза   |   
Раздают:  1  
   
загрузка...
 
Автор Сообщение

Galfimbul

avatar Galfimbul


Гол! / Goal!
«Все начинается с мечты»
Премьера: 2005
Оригинальное название: Goal!
Страна: США, Великобритания
Жанр: драма, мелодрама, спорт
Возраст: 12+

Режиссер: Дэнни Кэннон / Danny Cannon

В ролях: Куно Беккер, Стивен Диллэйн, Алессандро Нивола, Анна Фрил, Мириам Колон, Тони Плана, Киран О’Брайэн, Марчел Юреш, Шон Пертуи, Леонардо Гуерра, Херман Чавас, Кристофер Коннел, Кевин Кнапман, Эмма Филд-Рэйнер, Майк Эллиот, Грег Эллис, Хорхе Сервера, Альфредо Родригез

Описание: Воплотить свои мечты в жизнь, стать профессиональным футболистом — вот чем руководствуется Сантьяго Муньес, направляясь в Англию. Любовь и дружба, мужество и обаяние — встречаются на его пути…

Продолжительность: 01:58:07
Перевод: Дублированный
Оригинальная дорожка: есть

Автор рипа:

Качество видео: BDRip Исходник: BDRip (1080p) Формат: mp4
Видео кодек: MPEG-4 AVC Аудио кодек: AAC
Видео: 1280x536 (2.40:1) at 23.976 fps, AVC at 2 942 kbps avg, 0.179 bit/pixel
Аудио №1 Rus: 48.0 KHz, AAC, 2 ch, 128.0 Kbps
Аудио №2 Eng: 48.0 KHz, AAC, 2 ch, 128.0 Kbps
Субтитры: русские (полные), английские (полные)
Навигация по главам: нет
Размер: 2.65 GiB
avs [info]: 1280x536p 1:1 @ 24000/1001 fps (cfr)
x264 [info]: using SAR=1/1
x264 [info]: using cpu capabilities: MMX2 SSE2Fast SSSE3 Cache64
x264 [info]: profile High, level 4.1
x264 [info]: frame I:2786 Avg QP:16.71 size: 59939
x264 [info]: frame P:97675 Avg QP:19.88 size: 20292
x264 [info]: frame B:69478 Avg QP:22.00 size: 6585
x264 [info]: consecutive B-frames: 29.5% 45.5% 11.0% 8.2% 5.8%
x264 [info]: mb I I16..4: 8.7% 73.1% 18.2%
x264 [info]: mb P I16..4: 2.6% 11.0% 1.5% P16..4: 40.5% 20.4% 10.8% 0.0% 0.0% skip:13.1%
x264 [info]: mb B I16..4: 0.2% 0.6% 0.2% B16..8: 38.5% 7.2% 1.6% direct: 4.8% skip:46.9% L0:38.6% L1:49.6% BI:11.8%
x264 [info]: 8x8 transform intra:72.4% inter:73.9%
x264 [info]: coded y,uvDC,uvAC intra: 64.9% 79.3% 46.4% inter: 29.2% 38.1% 2.5%
x264 [info]: i16 v,h,dc,p: 35% 18% 7% 40%
x264 [info]: i8 v,h,dc,ddl,ddr,vr,hd,vl,hu: 20% 15% 22% 5% 7% 8% 7% 8% 7%
x264 [info]: i4 v,h,dc,ddl,ddr,vr,hd,vl,hu: 25% 19% 12% 5% 10% 9% 8% 6% 5%
x264 [info]: i8c dc,h,v,p: 49% 20% 21% 9%
x264 [info]: Weighted P-Frames: Y:1.7% UV:1.0%
x264 [info]: ref P L0: 55.3% 13.0% 13.5% 5.6% 4.2% 3.2% 2.7% 1.7% 0.8% 0.0%
x264 [info]: ref B L0: 78.7% 10.7% 4.8% 2.4% 1.8% 1.4% 0.2%
x264 [info]: ref B L1: 96.9% 3.1%
x264 [info]: kb/s:2941.89
encoded 169939 frames, 2.89 fps, 2941.89 kb/s
GeneralFormat : MPEG-4Format profile : Base MediaCodec ID : isom (isom)File size : 2.65 GiBDuration : 1 h 58 minOverall bit rate mode : VariableOverall bit rate : 3 209 kb/sMovie name : Гол!Performer : Дэнни КэннонDirector : Дэнни КэннонActor : Куно Беккер / Стивен Диллэйн / Алессандро Нивола / Анна Фрил / Мириам Колон / Тони Плана / Киран О’Брайэн / Марчел Юреш / Шон Пертуи / Леонардо Гуерра / Херман Чавас / Кристофер Коннел / Кевин Кнапман / Эмма Филд-Рэйнер / Майк Эллиот / Грег Эллис / Хорхе Сервера / Альфредо РодригезScreenplay by : Майк Джеффрис / Адриан Бучарт / Дик КлементProducer : Мэтт Баррелл / Марк Хаффам / Майк ДжеффрисGenre : Drama, Romance, SportsContentType : Short FilmRecorded date : 2005Encoded date : UTC 2017-01-02 10:54:19Tagged date : UTC 2017-01-02 11:12:31Cover : YesContentRating : mpaa|PG-13|300|LongDescription : Воплотить свои мечты в жизнь, стать профессиональным футболистом — вот чем руководствуется Сантьяго Муньес, направляясь в Англию. Любовь и дружба, мужество и обаяние — встречаются на его пути…HDVideo : Yes

VideoID : 1Format : AVCFormat/Info : Advanced Video CodecFormat profile : [email protected] settings, CABAC : YesFormat settings, ReFrames : 8 framesCodec ID : avc1Codec ID/Info : Advanced Video CodingDuration : 1 h 58 minBit rate : 2 942 kb/sMaximum bit rate : 14.1 Mb/sWidth : 1 280 pixelsHeight : 536 pixelsDisplay aspect ratio : 2.40:1Frame rate mode : ConstantFrame rate : 23.976 (24000/1001) FPSColor space : YUVChroma subsampling : 4:2:0Bit depth : 8 bitsScan type : ProgressiveBits/(Pixel*Frame) : 0.179Stream size : 2.43 GiB (92%)Writing library : x264 core 148 r2638 7599210Encoding settings : cabac=1 / ref=8 / deblock=1:-2:-1 / analyse=0x3:0x113 / me=umh / subme=7 / psy=1 / psy_rd=1.00:0.15 / mixed_ref=1 / me_range=32 / chroma_me=1 / trellis=1 / 8x8dct=1 / cqm=0 / deadzone=21,11 / fast_pskip=1 / chroma_qp_offset=-3 / threads=3 / lookahead_threads=1 / sliced_threads=0 / nr=0 / decimate=1 / interlaced=0 / bluray_compat=0 / constrained_intra=0 / bframes=4 / b_pyramid=2 / b_adapt=1 / b_bias=0 / direct=1 / weightb=1 / open_gop=0 / weightp=2 / keyint=240 / keyint_min=23 / scenecut=40 / intra_refresh=0 / rc_lookahead=60 / rc=crf / mbtree=1 / crf=19.0 / qcomp=0.60 / qpmin=0 / qpmax=69 / qpstep=4 / vbv_maxrate=62500 / vbv_bufsize=78125 / crf_max=0.0 / nal_hrd=none / filler=0 / ip_ratio=1.40 / aq=1:1.00Encoded date : UTC 2017-01-02 01:46:13Tagged date : UTC 2017-01-02 10:56:04

Audio #1ID : 2Format : AACFormat/Info : Advanced Audio CodecFormat profile : LCCodec ID : 40Duration : 1 h 58 minBit rate mode : VariableBit rate : 128 kb/sMaximum bit rate : 135 kb/sChannel(s) : 2 channelsChannel positions : Front: L RSampling rate : 48.0 kHzFrame rate : 46.875 FPS (1024 spf)Compression mode : LossyStream size : 108 MiB (4%)Title : DubLanguage : RussianEncoded date : UTC 2017-01-02 01:51:19Tagged date : UTC 2017-01-02 10:56:04

Audio #2ID : 3Format : AACFormat/Info : Advanced Audio CodecFormat profile : LCCodec ID : 40Duration : 1 h 58 minBit rate mode : VariableBit rate : 128 kb/sMaximum bit rate : 135 kb/sChannel(s) : 2 channelsChannel positions : Front: L RSampling rate : 48.0 kHzFrame rate : 46.875 FPS (1024 spf)Compression mode : LossyStream size : 108 MiB (4%)Language : EnglishEncoded date : UTC 2017-01-02 02:01:10Tagged date : UTC 2017-01-02 10:56:04

Text #1ID : 4Format : Timed TextCodec ID : tx3gDuration : 1 h 52 minBit rate mode : VariableBit rate : 82 b/sStream size : 67.4 KiB (0%)Title : FullLanguage : RussianForced : NoEncoded date : UTC 2017-01-02 10:56:03Tagged date : UTC 2017-01-02 10:56:04

Text #2ID : 5Format : Timed TextCodec ID : tx3gDuration : 1 h 52 minBit rate mode : VariableBit rate : 57 b/sStream size : 46.9 KiB (0%)Title : FullLanguage : EnglishForced : NoEncoded date : UTC 2017-01-02 10:56:03Tagged date : UTC 2017-01-02 10:56:04
<a href="tracker.php?rid=39840292" class="postLink"> </a>

Трекер:  [ 02-Янв-2017 14:30 ]

  

Скачать .torrent

Размер .torrent файла 13 KB


Размер: 2.65 GB
Хэш (hash) релиза: 30fc0804395d1fcb7f1d2f6575e1b93e029a0c43

Еще никто не оставлял запись к записи скачать торрент [VIDEO] Гол! Goal! . Будь первым!

!Обратная связь