Erich Riegelmann | Brianna Hildebrand | Power Rangers Wild Force

Скачать через торрент [MULT] Снеговик-почтовик бесплатно русская версия torrent активатор

Статистика раздачи
Размер:  161 MB   |    Зарегистрирован:  1 год 6 месяцев   |    .torrent скачан:  19 раз   |   
Раздают:  1  
   
загрузка...
 
Автор Сообщение

Galfimbul

avatar Galfimbul


<span class="post-font-serif1">Снеговик-почтовик</span>

<span class="post-font-serif1">Год выпуска: 1955
Страна: СССР
Жанр: мультфильм, короткометражка
Продолжительность: 00:18:31
Перевод: не требуется
Cубтитры: нет</span>
<span class="post-font-serif1">Режиссер: Леонид Амальрик</span>
<span class="post-font-serif1">Роли озвучивали: Юрий Хржановский, Георгий Вицин, Александр Щагин, Юлия Юльская, Алексей Грибов, Ростислав Плятт, Мария Виноградова, Лариса Бухарцева .</span>
<span class="post-font-serif1">Описание: Новогодняя сказка о снеговике, который помог зверюшкам победить Волка и организовать в лесу новогодний праздник.</span>
<span class="post-font-serif1">Релиз группы </span>
<span class="post-font-serif1">Качество: DVDRip / <a href="viewtopic.php?t=1319728" class="postLink">рип с DVD5</a>
Формат: MP4
Видео кодек: H.264
Аудио кодек: AAC
Видео: 466x360 AR:1.294 1080 kbps 25 fps
Аудио : 2ch 48 kHz 128 kbps</span>
avs [info]: 466x360p 1:1 @ 25/1 fps (cfr)
x264 [info]: using SAR=1/1
x264 [info]: using cpu capabilities: MMX2 SSE2Fast SSSE3 SSE4.2 AVX FMA3 AVX2 LZCNT BMI2
x264 [info]: profile High, level 4.1

x264 [info]: frame I:200 Avg QP:20.70 size: 23535
x264 [info]: frame P:6478 Avg QP:24.41 size: 9070
x264 [info]: frame B:21117 Avg QP:26.41 size: 4102
x264 [info]: consecutive B-frames: 3.1% 4.2% 9.2% 22.9% 18.6% 25.1% 7.5% 5.0% 2.8% 1.0% 0.8%
x264 [info]: mb I I16..4: 3.1% 75.9% 21.0%
x264 [info]: mb P I16..4: 0.4% 10.6% 1.9% P16..4: 36.1% 38.9% 11.7% 0.0% 0.0% skip: 0.5%
x264 [info]: mb B I16..4: 0.1% 2.9% 0.4% B16..8: 37.7% 25.3% 4.3% direct: 8.4% skip:20.8% L0:51.3% L1:38.9% BI: 9.8%
x264 [info]: 8x8 transform intra:83.3% inter:69.9%
x264 [info]: direct mvs spatial:96.4% temporal:3.6%
x264 [info]: coded y,uvDC,uvAC intra: 90.9% 73.5% 31.9% inter: 42.7% 29.9% 4.6%
x264 [info]: i16 v,h,dc,p: 15% 49% 3% 32%
x264 [info]: i8 v,h,dc,ddl,ddr,vr,hd,vl,hu: 13% 10% 4% 10% 14% 12% 14% 11% 12%
x264 [info]: i4 v,h,dc,ddl,ddr,vr,hd,vl,hu: 10% 19% 3% 8% 13% 12% 13% 9% 12%
x264 [info]: i8c dc,h,v,p: 31% 29% 25% 15%
x264 [info]: Weighted P-Frames: Y:39.0% UV:8.9%
x264 [info]: ref P L0: 35.5% 12.8% 14.6% 8.8% 6.3% 5.5% 4.6% 3.0% 2.7% 2.5% 2.4% 1.3% 0.0%
x264 [info]: ref B L0: 60.1% 14.8% 7.9% 4.4% 3.4% 3.2% 2.6% 1.9% 1.2% 0.6%
x264 [info]: ref B L1: 93.1% 6.9%
x264 [info]: kb/s:1080.00

encoded 27795 frames, 24.41 fps, 1080.00 kb/s

GeneralComplete name : D:\Torrents\Snegovik-pochtovik.1955.DVDRip.x264.640x.rip by Frost O.S.mp4Format : MPEG-4Format profile : Base MediaCodec ID : isom (isom/avc1)File size : 161 MiBDuration : 18 min 31 sOverall bit rate mode : VariableOverall bit rate : 1 216 kb/sMovie name : snegovik-pochtovikGenre : AnimationContentType : Short FilmEncoded date : UTC 2016-12-31 18:12:24Tagged date : UTC 2016-12-31 18:13:01Writing application : MkvToMp4 version: 0.224 (x64)Cover : YesComment : rip by Frost O.SLongDescription : Новогодняя сказка о снеговике, который помог зверюшкам победить Волка и организовать в лесу новогодний праздник.

VideoID : 1Format : AVCFormat/Info : Advanced Video CodecFormat profile : [email protected] settings, CABAC : YesFormat settings, ReFrames : 11 framesCodec ID : avc1Codec ID/Info : Advanced Video CodingDuration : 18 min 31 sBit rate : 1 080 kb/sMaximum bit rate : 4 189 kb/sWidth : 466 pixelsHeight : 360 pixelsDisplay aspect ratio : 1.294Frame rate mode : ConstantFrame rate : 25.000 FPSColor space : YUVChroma subsampling : 4:2:0Bit depth : 8 bitsScan type : ProgressiveBits/(Pixel*Frame) : 0.258Stream size : 143 MiB (89%)Writing library : x264 core 148 r2705 3f5ed56Encoding settings : cabac=1 / ref=11 / deblock=1:-2:-2 / analyse=0x3:0x113 / me=umh / subme=11 / psy=1 / psy_rd=0.85:0.00 / mixed_ref=1 / me_range=48 / chroma_me=1 / trellis=2 / 8x8dct=1 / cqm=0 / deadzone=21,11 / fast_pskip=0 / chroma_qp_offset=-2 / threads=6 / lookahead_threads=1 / sliced_threads=0 / nr=0 / decimate=0 / interlaced=0 / bluray_compat=0 / constrained_intra=0 / bframes=10 / b_pyramid=2 / b_adapt=2 / b_bias=0 / direct=3 / weightb=1 / open_gop=0 / weightp=2 / keyint=250 / keyint_min=25 / scenecut=40 / intra_refresh=0 / rc_lookahead=60 / rc=2pass / mbtree=1 / bitrate=1080 / ratetol=1.0 / qcomp=0.60 / qpmin=0 / qpmax=69 / qpstep=4 / cplxblur=20.0 / qblur=0.5 / ip_ratio=1.40 / aq=2:0.90Language : EnglishEncoded date : UTC 2016-12-31 18:12:24Tagged date : UTC 2016-12-31 18:12:35Color range : LimitedColor primaries : BT.601 PALTransfer characteristics : BT.470 System B, BT.470 System GMatrix coefficients : BT.601

AudioID : 2Format : AACFormat/Info : Advanced Audio CodecFormat profile : LCCodec ID : 40Duration : 18 min 31 sBit rate mode : VariableBit rate : 128 kb/sMaximum bit rate : 131 kb/sChannel(s) : 2 channelsChannel positions : Front: L RSampling rate : 48.0 kHzFrame rate : 46.875 FPS (1024 spf)Compression mode : LossyStream size : 17.0 MiB (11%)Language : RussianDefault : YesAlternate group : 1Encoded date : UTC 2016-12-31 18:12:26Tagged date : UTC 2016-12-31 18:12:35


Трекер:  [ 31-Дек-2016 20:30 ]

  

Скачать .torrent

Размер .torrent файла 13 KB


Размер: 161 MB
Хэш (hash) релиза: 11e6d1909b467b5c48ecb9e3b05e1f54a3c085a7

Еще никто не оставлял запись к записи скачать торрент [MULT] Снеговик-почтовик . Будь первым!

!Обратная связь