Naked Survival - Ausgezogen in die Wildnis | John Archer | Escolas e Ensino

Скачать через торрент [MULT] Дед Мороз и Серый волк бесплатно русская версия torrent активатор

Статистика раздачи
Размер:  146 MB   |    Зарегистрирован:  1 год 6 месяцев   |    .torrent скачан:  20 раз   |   
Раздают:  1  
   
загрузка...
 
Автор Сообщение

Galfimbul

avatar Galfimbul


<span class="post-font-serif1">Дед Мороз и Серый волк</span>

<span class="post-font-serif1">Год выпуска: 1978
Страна: СССР
Жанр: мультфильм, короткометражка
Продолжительность: 00:16:45
Перевод: не требуется
Cубтитры: нет</span>
<span class="post-font-serif1">Режиссер: Витольд Бордзиловский</span>
<span class="post-font-serif1">Роли озвучивали: Анатолий Папанов, Борис Владимиров, Георгий Вицин, Мария Виноградова, Маргарита Корабельникова, Ольга Громова .</span>
<span class="post-font-serif1">Описание: Новогодние приключения Деда Мороза, Снегурочки и их веселой свиты. Дед Мороз помогает зайчатам избавиться от преследований злого волка и принести из леса чудесную новогоднюю елку.</span>
<span class="post-font-serif1">Релиз группы </span>
<span class="post-font-serif1">Качество: DVDRip / <a href="viewtopic.php?t=1319728" class="postLink">рип с DVD5</a>
Формат: MP4
Видео кодек: H.264
Аудио кодек: AAC
Видео: 466x360 AR:1.294 1080 kbps 25 fps
Аудио : 2ch 48 kHz 128 kbps</span>
avs [info]: 466x360p 1:1 @ 25/1 fps (cfr)
x264 [info]: using SAR=1/1
x264 [info]: using cpu capabilities: MMX2 SSE2Fast SSSE3 SSE4.2 AVX FMA3 AVX2 LZCNT BMI2
x264 [info]: profile High, level 4.1

x264 [info]: frame I:182 Avg QP:19.52 size: 27126
x264 [info]: frame P:5469 Avg QP:22.81 size: 10846
x264 [info]: frame B:19477 Avg QP:25.32 size: 3670
x264 [info]: consecutive B-frames: 1.5% 1.1% 7.4% 34.1% 21.4% 19.5% 7.3% 4.9% 1.8% 0.8% 0.3%
x264 [info]: mb I I16..4: 1.3% 83.3% 15.4%
x264 [info]: mb P I16..4: 0.1% 7.9% 1.4% P16..4: 34.6% 40.4% 15.1% 0.0% 0.0% skip: 0.5%
x264 [info]: mb B I16..4: 0.0% 1.4% 0.2% B16..8: 34.7% 22.6% 3.9% direct:10.3% skip:26.8% L0:50.0% L1:36.6% BI:13.5%
x264 [info]: 8x8 transform intra:83.8% inter:70.0%
x264 [info]: direct mvs spatial:94.7% temporal:5.3%
x264 [info]: coded y,uvDC,uvAC intra: 93.2% 83.3% 39.9% inter: 44.3% 31.6% 5.6%
x264 [info]: i16 v,h,dc,p: 22% 34% 4% 40%
x264 [info]: i8 v,h,dc,ddl,ddr,vr,hd,vl,hu: 13% 9% 5% 10% 14% 12% 12% 12% 13%
x264 [info]: i4 v,h,dc,ddl,ddr,vr,hd,vl,hu: 9% 22% 3% 8% 13% 11% 12% 10% 12%
x264 [info]: i8c dc,h,v,p: 31% 31% 21% 17%
x264 [info]: Weighted P-Frames: Y:57.4% UV:14.9%
x264 [info]: ref P L0: 32.5% 12.3% 12.5% 9.7% 6.4% 6.4% 4.9% 3.8% 3.0% 3.3% 2.8% 2.3% 0.0%
x264 [info]: ref B L0: 64.2% 13.5% 6.5% 4.0% 3.0% 2.9% 2.3% 1.7% 1.2% 0.7%
x264 [info]: ref B L1: 95.0% 5.0%
x264 [info]: kb/s:1080.35

encoded 25128 frames, 25.24 fps, 1080.36 kb/s

GeneralComplete name : D:\Torrents\Ded Moroz i Seruy volk.1978.DVDRip.x264.640x.rip by Frost O.S.mp4Format : MPEG-4Format profile : Base MediaCodec ID : isom (isom/avc1)File size : 146 MiBDuration : 16 min 45 sOverall bit rate mode : VariableOverall bit rate : 1 217 kb/sMovie name : Ded moroz i ceruy volkGenre : AnimationContentType : Short FilmEncoded date : UTC 2016-12-31 17:37:55Tagged date : UTC 2016-12-31 17:38:08Writing application : MkvToMp4 version: 0.224 (x64)Cover : YesComment : rip by Frost O.SLongDescription : Новогодние приключения Деда Мороза, Снегурочки и их веселой свиты. Дед Мороз помогает зайчатам избавиться от преследований злого волка и принести из леса чудесную новогоднюю елку.

VideoID : 1Format : AVCFormat/Info : Advanced Video CodecFormat profile : [email protected] settings, CABAC : YesFormat settings, ReFrames : 11 framesCodec ID : avc1Codec ID/Info : Advanced Video CodingDuration : 16 min 45 sBit rate : 1 080 kb/sMaximum bit rate : 2 819 kb/sWidth : 466 pixelsHeight : 360 pixelsDisplay aspect ratio : 1.294Frame rate mode : ConstantFrame rate : 25.000 FPSColor space : YUVChroma subsampling : 4:2:0Bit depth : 8 bitsScan type : ProgressiveBits/(Pixel*Frame) : 0.258Stream size : 129 MiB (89%)Writing library : x264 core 148 r2705 3f5ed56Encoding settings : cabac=1 / ref=11 / deblock=1:-2:-2 / analyse=0x3:0x113 / me=umh / subme=11 / psy=1 / psy_rd=0.85:0.00 / mixed_ref=1 / me_range=48 / chroma_me=1 / trellis=2 / 8x8dct=1 / cqm=0 / deadzone=21,11 / fast_pskip=0 / chroma_qp_offset=-2 / threads=6 / lookahead_threads=1 / sliced_threads=0 / nr=0 / decimate=0 / interlaced=0 / bluray_compat=0 / constrained_intra=0 / bframes=10 / b_pyramid=2 / b_adapt=2 / b_bias=0 / direct=3 / weightb=1 / open_gop=0 / weightp=2 / keyint=250 / keyint_min=25 / scenecut=40 / intra_refresh=0 / rc_lookahead=60 / rc=2pass / mbtree=1 / bitrate=1080 / ratetol=1.0 / qcomp=0.60 / qpmin=0 / qpmax=69 / qpstep=4 / cplxblur=20.0 / qblur=0.5 / ip_ratio=1.40 / aq=2:0.90Language : EnglishEncoded date : UTC 2016-12-31 17:37:55Tagged date : UTC 2016-12-31 17:37:58Color range : LimitedColor primaries : BT.601 PALTransfer characteristics : BT.470 System B, BT.470 System GMatrix coefficients : BT.601

AudioID : 2Format : AACFormat/Info : Advanced Audio CodecFormat profile : LCCodec ID : 40Duration : 16 min 44 sBit rate mode : VariableBit rate : 128 kb/sMaximum bit rate : 132 kb/sChannel(s) : 2 channelsChannel positions : Front: L RSampling rate : 48.0 kHzFrame rate : 46.875 FPS (1024 spf)Compression mode : LossyStream size : 15.3 MiB (11%)Language : RussianDefault : YesAlternate group : 1Encoded date : UTC 2016-12-31 17:37:57Tagged date : UTC 2016-12-31 17:37:58


Трекер:  [ 31-Дек-2016 19:30 ]

  

Скачать .torrent

Размер .torrent файла 12 KB


Размер: 146 MB
Хэш (hash) релиза: 69c00b82028fb9ff38717e121d11887337dd9784

Еще никто не оставлял запись к записи скачать торрент [MULT] Дед Мороз и Серый волк . Будь первым!

!Обратная связь