Fear.The.Walking.Dead.S02E01.HDTV.x264-KILLERS[ettv] | Happy Town | IMDb: 5.1 HD They Remain

Скачать через торрент [VIDEO] Перевозчик: Наследие The Transporter Refueled бесплатно русская версия torrent активатор

Статистика раздачи
Размер:  435 MB   |    Зарегистрирован:  1 год 6 месяцев   |    .torrent скачан:  19 раз   |   
Раздают:  1  
   
загрузка...
 
Автор Сообщение

Galfimbul

avatar Galfimbul


<span class="post-font-serif1">Перевозчик: Наследие / The Transporter Refueled</span>

<span class="post-font-serif1">Год выпуска: 2015
Страна: Франция, Китай, Бельгия / Canal+ [fr]
Жанр: боевик, триллер, криминал
Продолжительность: 01:35:54
Перевод: русский Профессиональный (полное дублирование) BD RUS |Лицензия|
Cубтитры: нет</span>
<span class="post-font-serif1">Режиссер: Камиль Деламарр / Camille Delamarre</span>
<span class="post-font-serif1">В ролях: Эд Скрейн, Рэй Стивенсон, Лоан Шабаноль, Габриэлла Райт, Татьяна Пайкович, Венься Ю, Радивойе Буквич, Ноэми Ленуар, Юрий Колокольников, Ленн Кудрявицки и другие .</span>
<span class="post-font-serif1">Описание: Фрэнк Мартин — самый высококвалифицированный перевозчик, которого только можно нанять за деньги. Ставки выше, технологии поднялись на более высокий уровень, но правила те же: никогда не изменять условия сделки, никаких имен и никогда не открывать груз.
Когда Фрэнка нанимает хитроумная красотка Анна и ее три очаровательные сообщницы, он быстро выясняет, что его водят за нос. Анна и ее команда похитили его отца, чтобы заставить Фрэнка помочь им разобраться с группой безжалостных торговцев людьми.</span>
<span class="post-font-serif1">Релиз группы </span>
<span class="post-font-serif1">Качество: HDRip / рип с BDRip 720p (BLUEBIRD)
Формат: MP4
Видео кодек: XviD
Аудио кодек: AAC
Видео: 480x200 AR:2.40 499 kbps 23.976 fps
Аудио: [Russian] 2ch 48 kHz 128 kbps - [Dub] Профессиональный (полное дублирование) BD RUS |Лицензия|</span>
GeneralComplete name : D:\Torrents\The Transporter Refueled.2015.HDRip.XviD.480x.rip by Frost O.S.mp4Format : MPEG-4Format profile : Base MediaCodec ID : isom (isom/iso2)File size : 435 MiBDuration : 1 h 35 minOverall bit rate mode : VariableOverall bit rate : 635 kb/sMovie name : The Transporter Refueled 2015 HDRip XviD 480x rip by Frost O SGenre : ActionContentType : Short FilmEncoded date : UTC 2016-12-31 14:56:16Tagged date : UTC 2016-12-31 14:56:47Writing application : MkvToMp4 version: 0.224 (x64)Cover : YesComment : rip by Frost O.SLongDescription : Фрэнк Мартин — самый высококвалифицированный перевозчик, которого только можно нанять за деньги. Ставки выше, технологии поднялись на более высокий уровень, но правила те же: никогда не изменять условия сделки, никаких имен и никогда не открывать груз. Когда Фрэнка нанимает хитроумная красотка Анна и ее три очаровательные сообщницы, он быстро выясняет, что его водят за нос. Анна и ее команда похитили его отца, чтобы заставить Фрэнка помочь им разобраться с группой безжалостных торговцев людьми.

VideoID : 1Format : MPEG-4 VisualFormat profile : Advanced [email protected] settings, BVOP : YesFormat settings, QPel : NoFormat settings, GMC : No warppointsFormat settings, Matrix : CustomCodec ID : 20Duration : 1 h 35 minBit rate mode : VariableBit rate : 499 kb/sMaximum bit rate : 2 790 kb/sWidth : 480 pixelsHeight : 200 pixelsDisplay aspect ratio : 2.40:1Frame rate mode : ConstantFrame rate : 23.976 (24000/1001) FPSOriginal frame rate : 23.976 (23976/1000) FPSColor space : YUVChroma subsampling : 4:2:0Bit depth : 8 bitsScan type : ProgressiveCompression mode : LossyBits/(Pixel*Frame) : 0.217Stream size : 342 MiB (79%)Title : avi_GPAC0.5.2_DEV_rev248_g39d5978_masterWriting library : XviD 1.2.1 (UTC 2008-12-04)Language : EnglishTagged date : UTC 2016-12-31 14:56:27

AudioID : 2Format : AACFormat/Info : Advanced Audio CodecFormat profile : LCCodec ID : 40Duration : 1 h 35 minBit rate mode : VariableBit rate : 128 kb/sMaximum bit rate : 135 kb/sChannel(s) : 2 channelsChannel positions : Front: L RSampling rate : 48.0 kHzFrame rate : 46.875 FPS (1024 spf)Compression mode : LossyStream size : 87.8 MiB (20%)Title : Dub_ BD Rus _Licenziya_ / Dub_ BD Rus _Licenziya_Language : RussianDefault : YesAlternate group : 1Encoded date : UTC 2016-12-31 14:56:25Tagged date : UTC 2016-12-31 14:56:27


Трекер:  [ 31-Дек-2016 17:30 ]

  

Скачать .torrent

Размер .torrent файла 17 KB


Размер: 435 MB
Хэш (hash) релиза: 53924e9170af5a138e583a1a2dc192511a155f8b

Торренты, похожие на [VIDEO] Перевозчик: Наследие The Transporter Refueled скачать торрент

Форум Название Автор Размер S L Добавлен
Видео (Фильмы/Клипы) ·· [VIDEO] Перевозчик: Наследие / The Transporter Refueled (Камиль Деламарр / Camille Delamarre) [2015, боевик, триллер, криминал, HDRip] [MP4, 960x] Dub Galfimbul 10491128711001 MB 0 0 1483196176

17:56

31-Дек-16

Видео (Фильмы/Клипы) ·· [VIDEO] Перевозчик: Наследие / The Transporter Refueled (Камиль Деламарр) [2015, боевик, триллер, криминал, BDRip] [MP4, 1280x] Galfimbul 18172148411.69 GB 0 0 1450901023

23:03

23-Дек-15

Еще никто не оставлял запись к записи скачать торрент [VIDEO] Перевозчик: Наследие The Transporter Refueled . Будь первым!

!Обратная связь